YoungCourtesans.com Shakti – Special Sex Arrangement

Nubiles-Porn.com Olivia Devine, Loving TouchNubilefilms.com Elena Rae – Russian Beauty

Posted in HD Porn, Pornstar, Sex Movies, Teen | 14896 Views |


Rate this girl !!!




cover\r\n\r\n1920x1080p / MP4 / 763.03 MB\r\n

[YoungCourtesans.com] Shakti – Special Sex Arrangement

\r\nSCREENSHOTS:\r\n\r\nscreens



DOWNLOAD

Keep2share.cc - Uploaded.net - Openload.co - Rapidu.net



http://played.to/4vukr7oteuo2

http://ul.to/28x7xy2r/YC.Sh4kt1.FvllHD.18.1o.2o14.mp4


Premium here:
uploaded.net
keep2share.cc
rapidu.net.cc


Teens related to YoungCourtesans.com Shakti – Special Sex Arrangement


Amateur Teen Sex 225702 ryushare uploaded keep2share

Amateur Teen Sex 225702

Franziska Facella – Sparkle For Me ryushare uploaded keep2share

Franziska Facella – Sparkle For Me

Young legal porn clips 3026 ryushare uploaded keep2share

Young legal porn clips 3026

Hardcore Sex Hub 223823 ryushare uploaded keep2share

Hardcore Sex Hub 223823

18YearOld.com Alexis Adams – Blonde Teen ryushare uploaded keep2share

18YearOld.com Alexis Adams – Blonde Teen

www hdsexse vidio 226293 ryushare uploaded keep2share

www hdsexse vidio 226293

Emily – A date from sugar daddy sex chat ryushare uploaded keep2share

Emily – A date from sugar daddy sex chat

Hardcore Sex Hub 224158 ryushare uploaded keep2share

Hardcore Sex Hub 224158

Teen xxx sex hd 223777 ryushare uploaded keep2share

Teen xxx sex hd 223777

Amazing Outdoors – Beautiful Brunette ryushare uploaded keep2share

Amazing Outdoors – Beautiful Brunette

Wow girls hd porn teens 5537 ryushare uploaded keep2share

Wow girls hd porn teens 5537

Young xxx 225438 ryushare uploaded keep2share

Young xxx 225438

proun hup xxx video mp4 ryushare uploaded keep2share

proun hup xxx video mp4

Nubiles-Porn Sierra Nevadah – Fucking Love ryushare uploaded keep2share

Nubiles-Porn Sierra Nevadah – Fucking Love

Creampie-Angels.com Sheri Vi ryushare uploaded keep2share

Creampie-Angels.com Sheri Vi

Upload Hdxxx short videos ryushare uploaded keep2share

Upload Hdxxx short videos

Massage girl ryushare uploaded keep2share

Massage girl

Hd young videos 4536 ryushare uploaded keep2share

Hd young videos 4536

Cute face hot pussy – Angel Hot ryushare uploaded keep2share

Cute face hot pussy – Angel Hot

Teen porn movies 2556 ryushare uploaded keep2share

Teen porn movies 2556

HD Porn Teen Sex Videos 223795 ryushare uploaded keep2share

HD Porn Teen Sex Videos 223795

Sexy hd world com 226166 ryushare uploaded keep2share

Sexy hd world com 226166

Porn party teen girls 223820 ryushare uploaded keep2share

Porn party teen girls 223820

Alysa Gap & Beata Undine – Bounty Of Meat ryushare uploaded keep2share

Alysa Gap & Beata Undine – Bounty Of Meat

HD Porn Teen Sex Videos 1479 ryushare uploaded keep2share

HD Porn Teen Sex Videos 1479

Teenies Videos – Teen Porn, Teen Sex, XXX Free Videos 2114 ryushare uploaded keep2share

Teenies Videos – Teen Porn, Teen Sex, XXX Free Videos 2114

8 Teen XXX – Teen Sex 224953 ryushare uploaded keep2share

8 Teen XXX – Teen Sex 224953

barazzar hd fuck com 226325 ryushare uploaded keep2share

barazzar hd fuck com 226325

HD Sex World Videos High Definition Free Porn 224396 ryushare uploaded keep2share

HD Sex World Videos High Definition Free Porn 224396

Sweet Teen Porn – Young Porn Videos 224270 ryushare uploaded keep2share

Sweet Teen Porn – Young Porn Videos 224270

Teen Sex Movies 3822 ryushare uploaded keep2share

Teen Sex Movies 3822

Teen Porn XXX Tube 225214 ryushare uploaded keep2share

Teen Porn XXX Tube 225214

Hot Teen Sex 224365 ryushare uploaded keep2share

Hot Teen Sex 224365

Model porno sex 2822 ryushare uploaded keep2share

Model porno sex 2822

www xxxx video donlood hd 226672 ryushare uploaded keep2share

www xxxx video donlood hd 226672

Report broken links / Post a comment

You must be logged in to post a comment.



HD Teens Movies Young Downloads Online Clips Scenes 2 [YoungCourtesans.com] Shakti – Special Sex Arrangement \r\nGeneral\r\nComplete name : J:HD Teens Movies Young Downloads Online Clips Scenes 2 [YoungCourtesans.com] Shakti – Special Sex Arrangement .mp4\r\n\r\nFormat : MPEG-4\r\nFormat profile : Base Media\r\nCodec ID : isom\r\nFile size : 763 MiB\r\nDuration : 22mn 34s\r\nOverall bit rate mode : Variable\r\nOverall bit rate : 4 725 Kbps\r\nWriting application : Lavf54.22.101\r\n\r\nVideo\r\nID : 1\r\nFormat : AVC\r\nFormat/Info : Advanced Video Codec\r\nFormat profile : [email protected]\r\nFormat settings, CABAC : Yes\r\nFormat settings, ReFrames : 4 frames\r\nCodec ID : avc1\r\nCodec ID/Info : Advanced Video Coding\r\nDuration : 22mn 34s\r\nBit rate : 4 608 Kbps\r\nWidth : 1 920 pixels\r\nHeight : 1 080 pixels\r\nDisplay aspect ratio : 16:9\r\nFrame rate mode : Constant\r\nFrame rate : 25.000 fps\r\nColor space : YUV\r\nChroma subsampling : 4:2:0\r\nBit depth : 8 bits\r\nScan type : Progressive\r\nBits/(Pixel*Frame) : 0.089\r\nStream size : 744 MiB (98%)\r\nWriting library : x264 core 125\r\nEncoding settings : cabac=1 / ref=3 / deblock=1:0:0 / analyse=0x3:0x113 / me=hex / subme=7 / psy=1 / psy_rd=1.00:0.00 / mixed_ref=1 / me_range=16 / chroma_me=1 / trellis=0 / 8x8dct=1 / cqm=0 / deadzone=21,11 / fast_pskip=1 / chroma_qp_offset=-2 / threads=16 / lookahead_threads=2 / sliced_threads=0 / nr=0 / decimate=1 / interlaced=0 / bluray_compat=0 / constrained_intra=0 / bframes=8 / b_pyramid=2 / b_adapt=1 / b_bias=0 / direct=1 / weightb=1 / open_gop=0 / weightp=2 / keyint=50 / keyint_min=5 / scenecut=40 / intra_refresh=0 / rc_lookahead=40 / rc=crf / mbtree=1 / crf=20.0 / qcomp=0.60 / qpmin=0 / qpmax=69 / qpstep=4 / ip_ratio=1.40 / aq=1:1.00\r\nLanguage : Russian\r\n\r\nAudio\r\nID : 2\r\nFormat : AAC\r\nFormat/Info : Advanced Audio Codec\r\nFormat profile : LC\r\nCodec ID : 40\r\nDuration : 22mn 34s\r\nBit rate mode : Variable\r\nBit rate : 111 Kbps\r\nMaximum bit rate : 128 Kbps\r\nChannel count : 2 channels\r\nChannel positions : Front: L R\r\nSampling rate : 44.1 KHz\r\nCompression mode : Lossy\r\nStream size : 18.0 MiB (2%)\r\nLanguage : Russian\r\n\r\n