Young XXX Tube Videos 3931

Young XXX Tube Videos 3935Teen Sex Movies 3927

Posted in HD Porn, Pornstar, Sex Movies, Solo, Teen | 14685 Views |


Rate this girl !!!




cover

\r\n

1920x1080p / MP4 / 334.4 MB

\r\n

(WowGirls) Nomi – Enjoying My World

\r\n

screens

\r\n



DOWNLOAD

Keep2share.cc - Uploaded.net - Openload.co - Rapidu.net


http://fileom.com/wctlyub6kuuw/w.w.g.14.01.25.n.o.m.i.e.jo.yi.ng.m.y.w.o.ld.mp4.html
http://k2s.cc/file/75d8f689185fd/w.w.g.14.01.25.n.o.m.i.e.jo.yi.ng.m.y.w.o.ld.mp4
http://ryushare.com/cmpu7rcx5rxw/w.w.g.14.01.25.n.o.m.i.e.jo.yi.ng.m.y.w.o.ld.mp4
http://ul.to/pgygtujn/w.w.g.14.01.25.n.o.m.i.e.jo.yi.ng.m.y.w.o.ld.mp4


Premium here:
uploaded.net
keep2share.cc
rapidu.net.cc


Teens related to Young XXX Tube Videos 3931


blowjob craving lips 226579 ryushare uploaded keep2share

blowjob craving lips 226579

pinkworld anal porn videos download mp4 ryushare uploaded keep2share

pinkworld anal porn videos download mp4

Teen Sex Movies Young Porn Tube Vids 224457 ryushare uploaded keep2share

Teen Sex Movies Young Porn Tube Vids 224457

nubilefilms com/youporn december 2014 226042 ryushare uploaded keep2share

nubilefilms com/youporn december 2014 226042

Sweet Teen Porn – Young Porn Videos 3539 ryushare uploaded keep2share

Sweet Teen Porn – Young Porn Videos 3539

Girls do porn in HD 224295 ryushare uploaded keep2share

Girls do porn in HD 224295

Fucking the ass of young amateur ryushare uploaded keep2share

Fucking the ass of young amateur

Sweet Teen Porn – Young Porn Videos 1653 ryushare uploaded keep2share

Sweet Teen Porn – Young Porn Videos 1653

Summer Breeze and Victoria Tiffani ryushare uploaded keep2share

Summer Breeze and Victoria Tiffani

8 Teen XXX – Teen Sex 2973 ryushare uploaded keep2share

8 Teen XXX – Teen Sex 2973

Sweet Teen Porn – Young Porn Videos 224494 ryushare uploaded keep2share

Sweet Teen Porn – Young Porn Videos 224494

Free High Quality Sex Movies 2766 ryushare uploaded keep2share

Free High Quality Sex Movies 2766

HD Porn Teen Sex Videos 225317 ryushare uploaded keep2share

HD Porn Teen Sex Videos 225317

Anal Awakening ryushare uploaded keep2share

Anal Awakening

Young xxx 224931 ryushare uploaded keep2share

Young xxx 224931

Tube Young Sex 1390 ryushare uploaded keep2share

Tube Young Sex 1390

18 xxx potn srx 226432 ryushare uploaded keep2share

18 xxx potn srx 226432

Creampie-Angels.com Licie ryushare uploaded keep2share

Creampie-Angels.com Licie

hq hd pron pussy free downlode 226077 ryushare uploaded keep2share

hq hd pron pussy free downlode 226077

HD teen sex tube 3887 ryushare uploaded keep2share

HD teen sex tube 3887

hd hq sexy vefeos ryushare uploaded keep2share

hd hq sexy vefeos

Hardcore sex videos in the high definition quality 1264 ryushare uploaded keep2share

Hardcore sex videos in the high definition quality 1264

Fucking girl in stockings ryushare uploaded keep2share

Fucking girl in stockings

klixen cipriana and cindy 226252 ryushare uploaded keep2share

klixen cipriana and cindy 226252

HD Teens Sex Tube Videos XxX 225160 ryushare uploaded keep2share

HD Teens Sex Tube Videos XxX 225160

Adult Hardcore XXX Sex Videos 4120 ryushare uploaded keep2share

Adult Hardcore XXX Sex Videos 4120

www xvedeo comhd ryushare uploaded keep2share

www xvedeo comhd

Teen 18 Porn XXX Clips Naked 224758 ryushare uploaded keep2share

Teen 18 Porn XXX Clips Naked 224758

Nicole – Summertime sex hookup ryushare uploaded keep2share

Nicole – Summertime sex hookup

Kiara Lord – Window ryushare uploaded keep2share

Kiara Lord – Window

Hardcore Sex Hub 225938 ryushare uploaded keep2share

Hardcore Sex Hub 225938

hسكس ryushare uploaded keep2share

hسكس

Elly (My Secret Lover) ryushare uploaded keep2share

Elly (My Secret Lover)

Aiko Mai, Angellina – Sweet Like Candy ryushare uploaded keep2share

Aiko Mai, Angellina – Sweet Like Candy

gibitube com porn 226071 ryushare uploaded keep2share

gibitube com porn 226071

Report broken links / Post a comment

You must be logged in to post a comment.



UPLOADED / RYUSHARE / FILEOM / KEEP2SHARE\r\n\r\nhd tube amateur porn young girls sex direct download online movies clips\r\nryushare.com uploaded.net keep2share.cc fileom.com streamcloud.eu allmyvideos.net ul.to download porn movies clip\r\n\r\nGeneral\r\nComplete name : D:wowg.14.01.25.nomi.enjoying.my.world.mp4\r\nFormat : MPEG-4\r\nFormat profile : Base Media\r\nCodec ID : isom\r\nFile size : 334 MiB\r\nDuration : 14mn 33s\r\nOverall bit rate : 3 212 Kbps\r\nMovie name : Downloaded from RARBG.COM\r\nWriting application : Lavf55.21.100\r\nComment : Downloaded from RARBG.COM\r\n\r\nVideo\r\nID : 1\r\nFormat : AVC\r\nFormat/Info : Advanced Video Codec\r\nFormat profile : [email protected]\r\nFormat settings, CABAC : Yes\r\nFormat settings, ReFrames : 2 frames\r\nCodec ID : avc1\r\nCodec ID/Info : Advanced Video Coding\r\nDuration : 14mn 33s\r\nBit rate : 3 087 Kbps\r\nWidth : 1 920 pixels\r\nHeight : 1 080 pixels\r\nDisplay aspect ratio : 16:9\r\nFrame rate mode : Constant\r\nFrame rate : 29.970 fps\r\nColor space : YUV\r\nChroma subsampling : 4:2:0\r\nBit depth : 8 bits\r\nScan type : Progressive\r\nBits/(Pixel*Frame) : 0.050\r\nStream size : 321 MiB (96%)\r\nWriting library : x264 core 107\r\nEncoding settings : cabac=1 / ref=2 / deblock=1:0:0 / analyse=0x3:0x113 / me=hex / subme=6 / psy=1 / psy_rd=1.00:0.00 / mixed_ref=0 / me_range=16 / chroma_me=1 / trellis=0 / 8x8dct=1 / cqm=0 / deadzone=21,11 / fast_pskip=1 / chroma_qp_offset=-2 / threads=24 / sliced_threads=0 / nr=0 / decimate=1 / interlaced=0 / constrained_intra=0 / bframes=3 / b_pyramid=0 / b_adapt=1 / b_bias=0 / direct=3 / weightb=1 / open_gop=0 / weightp=2 / keyint=250 / keyint_min=25 / scenecut=40 / intra_refresh=0 / rc_lookahead=40 / rc=crf / mbtree=1 / crf=20.0 / qcomp=0.60 / qpmin=10 / qpmax=51 / qpstep=4 / ip_ratio=1.41 / aq=1:1.00\r\n\r\nAudio\r\nID : 2\r\nFormat : AAC\r\nFormat/Info : Advanced Audio Codec\r\nFormat profile : LC\r\nCodec ID : 40\r\nDuration : 14mn 33s\r\nBit rate mode : Constant\r\nBit rate : 118 Kbps\r\nChannel(s) : 2 channels\r\nChannel positions : Front: L R\r\nSampling rate : 44.1 KHz\r\nCompression mode : Lossy\r\nStream size : 12.3 MiB (4%)\r\n\r\n