Young XXX Tube Videos 3741

Hot Teen Sex 3744Porno Big Tits young teens movies 3737

Posted in Amateur, HD Porn, Sex Movies, Teen | 7871 Views |


Rate this girl !!!




\r\n



DOWNLOAD

Keep2share.cc - Uploaded.net - Openload.co - Rapidu.net


http://ryushare.com/buxk4tn6qbl4/N.B.P.VRds.mp4
http://fileom.com/49jccj6el8um/N.B.P.VRds.mp4.html
http://k2s.cc/file/fca9716cea8d2/N.B.P.VRds.mp4
http://ul.to/ubpcl7nl/N.B.P.VRds.mp4


Premium here:
uploaded.net
keep2share.cc
rapidu.net.cc


Teens related to Young XXX Tube Videos 3741


1080P full hd hordcore sex movies ryushare uploaded keep2share

1080P full hd hordcore sex movies

Watch Teen Sex Videos HD 225144 ryushare uploaded keep2share

Watch Teen Sex Videos HD 225144

hd18sex x videos com ryushare uploaded keep2share

hd18sex x videos com

hq hd pron pussy free downlode 226077 ryushare uploaded keep2share

hq hd pron pussy free downlode 226077

sex mkv movies hd 226711 ryushare uploaded keep2share

sex mkv movies hd 226711

Sweet Teen Porn – Young Porn Videos 4630 ryushare uploaded keep2share

Sweet Teen Porn – Young Porn Videos 4630

Hot Teen Sex HD videos 225252 ryushare uploaded keep2share

Hot Teen Sex HD videos 225252

Young Sex Movies 225506 ryushare uploaded keep2share

Young Sex Movies 225506

Girls sex art hd teens videos 223832 ryushare uploaded keep2share

Girls sex art hd teens videos 223832

Watch Teen Sex Videos HD 4135 ryushare uploaded keep2share

Watch Teen Sex Videos HD 4135

Fat Cock vs Horny Pussies ryushare uploaded keep2share

Fat Cock vs Horny Pussies

Hd young videos 1872 ryushare uploaded keep2share

Hd young videos 1872

sex xxx bf england ryushare uploaded keep2share

sex xxx bf england

Teen Sex Movies Young Porn Tube Vids 5394 ryushare uploaded keep2share

Teen Sex Movies Young Porn Tube Vids 5394

Porn teen hd downloads 224873 ryushare uploaded keep2share

Porn teen hd downloads 224873

[PublicAgent.com] Caroline Ardolino – Milf gets fucked hard for cash ryushare uploaded keep2share

[PublicAgent.com] Caroline Ardolino – Milf gets fucked hard for cash

TrickyMasseur.com Aline ryushare uploaded keep2share

TrickyMasseur.com Aline

Young Sex Movies 5160 ryushare uploaded keep2share

Young Sex Movies 5160

Young Sex Movies 224764 ryushare uploaded keep2share

Young Sex Movies 224764

Carmen Fox – Fucked by the best client ryushare uploaded keep2share

Carmen Fox – Fucked by the best client

xxx bf movies hd com 226686 ryushare uploaded keep2share

xxx bf movies hd com 226686

www foto 8 teenxxx 226674 ryushare uploaded keep2share

www foto 8 teenxxx 226674

xxx hd art videos download 226012 ryushare uploaded keep2share

xxx hd art videos download 226012

Amateur Teen Sex 223903 ryushare uploaded keep2share

Amateur Teen Sex 223903

[Girlfriends.XxX] Zena Little, Victoria Puppy ryushare uploaded keep2share

[Girlfriends.XxX] Zena Little, Victoria Puppy

pc xxx movie clips 226764 ryushare uploaded keep2share

pc xxx movie clips 226764

Uploaded net porn XXX 224345 ryushare uploaded keep2share

Uploaded net porn XXX 224345

Vintage Collection – The Photographer ryushare uploaded keep2share

Vintage Collection – The Photographer

Model porno sex 4345 ryushare uploaded keep2share

Model porno sex 4345

College Teen Sex 5458 ryushare uploaded keep2share

College Teen Sex 5458

Teen Porn XXX Tube 225056 ryushare uploaded keep2share

Teen Porn XXX Tube 225056

www hd all xxxmovies com ryushare uploaded keep2share

www hd all xxxmovies com

Girls sex art hd teens videos 225510 ryushare uploaded keep2share

Girls sex art hd teens videos 225510

Hot sex girls movies download 4514 ryushare uploaded keep2share

Hot sex girls movies download 4514

Movies Young legal porn 224470 ryushare uploaded keep2share

Movies Young legal porn 224470

Report broken links / Post a comment

You must be logged in to post a comment.



General\r\nComplete name : D:hd pornstars teens ryushare.com uploaded.net keep2share.cc fileom.com streamcloud.eu allmyvideos.net ul.to download porn movies clips N.B.P.VRds.mp4\r\nFormat : MPEG-4\r\nFormat profile : Base Media\r\nCodec ID : isom\r\nFile size : 342 MiB\r\nDuration : 11mn 22s\r\nOverall bit rate mode : Variable\r\nOverall bit rate : 4 198 Kbps\r\nWriting application : Lavf55.16.102\r\n\r\nVideo\r\nID : 1\r\nFormat : AVC\r\nFormat/Info : Advanced Video Codec\r\nFormat profile : [email protected]\r\nFormat settings, CABAC : Yes\r\nFormat settings, ReFrames : 4 frames\r\nCodec ID : avc1\r\nCodec ID/Info : Advanced Video Coding\r\nDuration : 11mn 22s\r\nBit rate : 4 037 Kbps\r\nWidth : 1 280 pixels\r\nHeight : 720 pixels\r\nDisplay aspect ratio : 16:9\r\nFrame rate mode : Constant\r\nFrame rate : 29.970 fps\r\nColor space : YUV\r\nChroma subsampling : 4:2:0\r\nBit depth : 8 bits\r\nScan type : Progressive\r\nBits/(Pixel*Frame) : 0.146\r\nStream size : 329 MiB (96%)\r\nWriting library : x264 core 123 r2189 35cf912\r\nEncoding settings : cabac=1 / ref=2 / deblock=1:-1:-1 / analyse=0x1:0x111 / me=umh / subme=8 / psy=1 / psy_rd=1.00:0.15 / mixed_ref=1 / me_range=16 / chroma_me=1 / trellis=1 / 8x8dct=0 / cqm=0 / deadzone=21,11 / fast_pskip=1 / chroma_qp_offset=-3 / threads=10 / sliced_threads=0 / nr=0 / decimate=1 / interlaced=0 / bluray_compat=0 / constrained_intra=0 / bframes=3 / b_pyramid=2 / b_adapt=2 / b_bias=0 / direct=3 / weightb=1 / open_gop=0 / weightp=0 / keyint=250 / keyint_min=25 / scenecut=40 / intra_refresh=0 / rc_lookahead=50 / rc=crf / mbtree=1 / crf=17.0 / qcomp=0.60 / qpmin=0 / qpmax=69 / qpstep=4 / ip_ratio=1.40 / aq=1:1.00\r\nLanguage : English\r\n\r\nAudio\r\nID : 2\r\nFormat : AAC\r\nFormat/Info : Advanced Audio Codec\r\nFormat profile : LC\r\nCodec ID : 40\r\nDuration : 11mn 22s\r\nDuration_LastFrame : -19ms\r\nBit rate mode : Variable\r\nBit rate : 152 Kbps\r\nMaximum bit rate : 196 Kbps\r\nChannel(s) : 2 channels\r\nChannel positions : Front: L R\r\nSampling rate : 44.1 KHz\r\nCompression mode : Lossy\r\nStream size : 12.4 MiB (4%)\r\nLanguage : English\r\n\r\nhd pornstars teens ryushare.com uploaded.net keep2share.cc fileom.com streamcloud.eu allmyvideos.net ul.to download porn movies clips