Young XXX Tube Videos 3564

HD teen sex tube 3568Teens 1080p hd porn 3561

Posted in HD Porn, Sex Movies, Teen | 8425 Views |


Rate this girl !!!




\r\n\r\n3.jpeg\r\n\r\n 



DOWNLOAD

Keep2share.cc - Uploaded.net - Openload.co - Rapidu.net


http://fileom.com/lontuyjcm7uw/TNSCTBrn.wmv.html
http://ryushare.com/dg8yosrvvfon/TNSCTBrn.wmv
http://ul.to/kmfmaekp/TNSCTBrn.wmv
http://k2s.cc/file/53deb0f297461/TNSCTBrn.wmv


Premium here:
uploaded.net
keep2share.cc
rapidu.net.cc


Teens related to Young XXX Tube Videos 3564


K Craving Lips 4 – CLIP B ryushare uploaded keep2share

K Craving Lips 4 – CLIP B

Hd quality – Teen sex video 5249 ryushare uploaded keep2share

Hd quality – Teen sex video 5249

Lіоnа & Сhаrlіzе Веllа – Forest Fun ryushare uploaded keep2share

Lіоnа & Сhаrlіzе Веllа – Forest Fun

Hot Teen Sex 2988 ryushare uploaded keep2share

Hot Teen Sex 2988

Teen porn movies 1954 ryushare uploaded keep2share

Teen porn movies 1954

Young Sex Movies 224073 ryushare uploaded keep2share

Young Sex Movies 224073

Anabelle Pync – Anabelle’s sensual tease – 2014 ryushare uploaded keep2share

Anabelle Pync – Anabelle’s sensual tease – 2014

Free Porn Videos Xxx Movies Pussy Porn 224680 ryushare uploaded keep2share

Free Porn Videos Xxx Movies Pussy Porn 224680

xxx hd com yang ryushare uploaded keep2share

xxx hd com yang

Teen porn xxx 5290 ryushare uploaded keep2share

Teen porn xxx 5290

Teen Tits Tube, Young Girls Porn Videos 6209 ryushare uploaded keep2share

Teen Tits Tube, Young Girls Porn Videos 6209

Creampie-Angels.com Licie ryushare uploaded keep2share

Creampie-Angels.com Licie

free download hd romance porn movie 226678 ryushare uploaded keep2share

free download hd romance porn movie 226678

College Teen Sex 225721 ryushare uploaded keep2share

College Teen Sex 225721

Free Porn Videos Xxx Movies Pussy Porn 3666 ryushare uploaded keep2share

Free Porn Videos Xxx Movies Pussy Porn 3666

pc hd porn xxx video ryushare uploaded keep2share

pc hd porn xxx video

sex hd romance 226550 ryushare uploaded keep2share

sex hd romance 226550

Kleine Muschi will ficken – Desertigl ryushare uploaded keep2share

Kleine Muschi will ficken – Desertigl

Nude Teens fucking hard 5025 ryushare uploaded keep2share

Nude Teens fucking hard 5025

Xxx fuka in 226353 ryushare uploaded keep2share

Xxx fuka in 226353

Kiara Lord – Window ryushare uploaded keep2share

Kiara Lord – Window

GirlsDoPorn – 19 Years Old Girl – Legal Teens ryushare uploaded keep2share

GirlsDoPorn – 19 Years Old Girl – Legal Teens

Teenies Videos – Teen Porn, Teen Sex, XXX Free Videos 2957 ryushare uploaded keep2share

Teenies Videos – Teen Porn, Teen Sex, XXX Free Videos 2957

Teen Sex Videos Tube Movies 1942 ryushare uploaded keep2share

Teen Sex Videos Tube Movies 1942

Teen Sex Videos Tube Movies 225092 ryushare uploaded keep2share

Teen Sex Videos Tube Movies 225092

Porn HD Sex HD Teen Sex 224487 ryushare uploaded keep2share

Porn HD Sex HD Teen Sex 224487

Uploaded net porn XXX 225961 ryushare uploaded keep2share

Uploaded net porn XXX 225961

Lucy Li – Perky Teen Lucy Li Gets Lathered download in hd 226168 ryushare uploaded keep2share

Lucy Li – Perky Teen Lucy Li Gets Lathered download in hd 226168

Wow porn tube movies 224325 ryushare uploaded keep2share

Wow porn tube movies 224325

Hot Teen Sex 225798 ryushare uploaded keep2share

Hot Teen Sex 225798

Porno movies young teens lesbian 5412 ryushare uploaded keep2share

Porno movies young teens lesbian 5412

download teen hd porn video small size ryushare uploaded keep2share

download teen hd porn video small size

PrivateSexTapes yulia anal ryushare uploaded keep2share

PrivateSexTapes yulia anal

proun hup xxx video mp4 ryushare uploaded keep2share

proun hup xxx video mp4

HD porn uploaded 4280 ryushare uploaded keep2share

HD porn uploaded 4280

Report broken links / Post a comment

You must be logged in to post a comment.



General\r\nComplete name : D:JDDescargasTNSCTBrn.wmv\r\nFormat : Windows Media\r\nFile size : 637 MiB\r\nDuration : 17mn 9s\r\nOverall bit rate : 5 191 Kbps\r\nMaximum Overall bit rate : 5 148 Kbps\r\nEncoded date : UTC 2013-11-01 14:53:50.000\r\n\r\nVideo\r\nID : 1\r\nFormat : VC-1\r\nFormat profile : Main\r\nCodec ID : WMV3\r\nCodec ID/Info : Windows Media Video 9\r\nCodec ID/Hint : WMV3\r\nDescription of the codec : Windows Media Video 328658744 - 2-pass VBR\r\nDuration : 17mn 9s\r\nBit rate : 5 000 Kbps\r\nWidth : 1 280 pixels\r\nHeight : 720 pixels\r\nDisplay aspect ratio : 16:9\r\nFrame rate : 25.000 fps\r\nColor space : YUV\r\nChroma subsampling : 4:2:0\r\nBit depth : 8 bits\r\nScan type : Progressive\r\nCompression mode : Lossy\r\nBits/(Pixel*Frame) : 0.217\r\nStream size : 613 MiB (96%)\r\n\r\nAudio\r\nID : 2\r\nFormat : WMA\r\nFormat version : Version 2\r\nCodec ID : 161\r\nCodec ID/Info : Windows Media Audio\r\nDescription of the codec : Windows Media Audio 9 - 328658744 kbps, 328658744 kHz, stereo CBR\r\nDuration : 17mn 9s\r\nBit rate : 128 Kbps\r\nChannel(s) : 2 channels\r\nSampling rate : 44.1 KHz\r\nBit depth : 16 bits\r\nStream size : 15.7 MiB (2%)\r\n\r\n