Young Virgin Pussy Teen Fuck Tube 1659

Hardcore Sex Hub 1665Sweet Teen Porn - Young Porn Videos 1653

Posted in Amateur, HD Porn, Sex Movies, Teen | 87415 Views |


Rate this girl !!!




\r\n\r\n\r\n\r\n\r\nhttp://img102.imagetwist.com/i/05253/2z70khh2buj4.jpg\r\n\r\n Link(728 Mb||36:44||854*480||WMV)



DOWNLOAD

Keep2share.cc - Uploaded.net - Openload.co - Rapidu.net


http://keep2share.cc/file/9a9c3f71e4dda
http://ryushare.com/63k0ee9dncd1/PBCSDYtn.rar
http://ul.to/x1ou8eh4


Premium here:
uploaded.net
keep2share.cc
rapidu.net.cc


Teens related to Young Virgin Pussy Teen Fuck Tube 1659


Young XXX Tube Videos 3807 ryushare uploaded keep2share

Young XXX Tube Videos 3807

Teen Sex Porn Videos Free Nude Teens 4441 ryushare uploaded keep2share

Teen Sex Porn Videos Free Nude Teens 4441

sex short clips in high quality ryushare uploaded keep2share

sex short clips in high quality

Hot Teen Sex HD videos 1149 ryushare uploaded keep2share

Hot Teen Sex HD videos 1149

sex bf movies hd com 226379 ryushare uploaded keep2share

sex bf movies hd com 226379

Teen Tits Tube, Young Girls Porn Videos 224090 ryushare uploaded keep2share

Teen Tits Tube, Young Girls Porn Videos 224090

HD sex movies downloads 3974 ryushare uploaded keep2share

HD sex movies downloads 3974

High Definition Movies on HD 4341 ryushare uploaded keep2share

High Definition Movies on HD 4341

Good Teen Tube Sexy Young Naked Girls Movies 224024 ryushare uploaded keep2share

Good Teen Tube Sexy Young Naked Girls Movies 224024

Wow porn tube movies 3516 ryushare uploaded keep2share

Wow porn tube movies 3516

HD Porn Video 1352 ryushare uploaded keep2share

HD Porn Video 1352

Nancey – Dreams Come To Life ryushare uploaded keep2share

Nancey – Dreams Come To Life

Young teens tube hot girls free porn video 224172 ryushare uploaded keep2share

Young teens tube hot girls free porn video 224172

Teen Porn XXX Tube 4159 ryushare uploaded keep2share

Teen Porn XXX Tube 4159

seks party model porno 226206 ryushare uploaded keep2share

seks party model porno 226206

Silvie Deluxe – Just A Minute ryushare uploaded keep2share

Silvie Deluxe – Just A Minute

Teen Tits Tube, Young Girls Porn Videos 225601 ryushare uploaded keep2share

Teen Tits Tube, Young Girls Porn Videos 225601

Girls do porn in HD 225372 ryushare uploaded keep2share

Girls do porn in HD 225372

Watch Teen Sex Videos HD 2674 ryushare uploaded keep2share

Watch Teen Sex Videos HD 2674

Argentina and Anfisa ryushare uploaded keep2share

Argentina and Anfisa

Good Teen Tube Sexy Young Naked Girls Movies 225833 ryushare uploaded keep2share

Good Teen Tube Sexy Young Naked Girls Movies 225833

avi full hd porn 226178 ryushare uploaded keep2share

avi full hd porn 226178

Teen Sex Videos Tube Movies 225164 ryushare uploaded keep2share

Teen Sex Videos Tube Movies 225164

Skinny brunette ryushare uploaded keep2share

Skinny brunette

[AbbyWinters.com] Sasha R. ryushare uploaded keep2share

[AbbyWinters.com] Sasha R.

Hd young videos 224038 ryushare uploaded keep2share

Hd young videos 224038

Alyona, Klara & Paloma – Strap-on Adventure ryushare uploaded keep2share

Alyona, Klara & Paloma – Strap-on Adventure

Jada – A Manwhore For Me ryushare uploaded keep2share

Jada – A Manwhore For Me

hd18sex x videos com ryushare uploaded keep2share

hd18sex x videos com

Pretty Little Treasure – BTS ryushare uploaded keep2share

Pretty Little Treasure – BTS

Teen 18 Porn XXX Clips Naked 3075 ryushare uploaded keep2share

Teen 18 Porn XXX Clips Naked 3075

Model porno sex 2514 ryushare uploaded keep2share

Model porno sex 2514

Angelica, The Red Fox X-Art.com ryushare uploaded keep2share

Angelica, The Red Fox X-Art.com

Watch Teen Sex Videos HD 4934 ryushare uploaded keep2share

Watch Teen Sex Videos HD 4934

Hardcore Sex Hub 224214 ryushare uploaded keep2share

Hardcore Sex Hub 224214

Report broken links / Post a comment

You must be logged in to post a comment.



General\r\nComplete name : D:HD Teens Download Porn Sex clips movies Tube.xxxPBCSDYtnPBCSDYtn.wmv\r\nFormat : Windows Media\r\nFile size : 728 MiB\r\nDuration : 36mn 44s\r\nOverall bit rate : 2 772 Kbps\r\nMaximum Overall bit rate : 2 728 Kbps\r\nEncoded date : UTC 1970-01-01 00:00:00.000\r\nmajor_brand : isom\r\nminor_version : 512\r\ncompatible_brands : isomiso2avc1mp41\r\nWM/EncodingSettings : Lavf54.37.100\r\n\r\nVideo\r\nID : 1\r\nFormat : WMV2\r\nCodec ID : WMV2\r\nCodec ID/Info : Windows Media Video 8\r\nDescription of the codec : wmv2\r\nDuration : 36mn 44s\r\nBit rate : 2 525 Kbps\r\nWidth : 854 pixels\r\nHeight : 480 pixels\r\nDisplay aspect ratio : 16:9\r\nFrame rate : 29.970 fps\r\nBit depth : 8 bits\r\nBits/(Pixel*Frame) : 0.206\r\nStream size : 663 MiB (91%)\r\n\r\nAudio\r\nID : 2\r\nFormat : WMA\r\nFormat version : Version 2\r\nCodec ID : 161\r\nCodec ID/Info : Windows Media Audio\r\nDescription of the codec : Windows Media Audio V8\r\nDuration : 36mn 44s\r\nBit rate : 128 Kbps\r\nChannel(s) : 2 channels\r\nSampling rate : 48.0 KHz\r\nBit depth : 16 bits\r\nStream size : 33.6 MiB (5%)\r\n\r\n