Young teens tube hot girls free porn video 2142

Hot Teen Sex 2145Free High Quality Sex Movies 2139

Posted in Amateur, HD Porn, Sex Movies, Teen | 20788 Views |


Rate this girl !!!




\r\n\r\n4.jpg\r\n\r\n Link(653 Mb||21:31||1280*720||WMV)



DOWNLOAD

Keep2share.cc - Uploaded.net - Openload.co - Rapidu.net


http://ryushare.com/57uun30t0zsq/MNDGRBty.wmv
http://ul.to/86moxwf8/MNDGRBty.wmv
http://k2s.cc/file/58e60326174a0/MNDGRBty.wmv


Premium here:
uploaded.net
keep2share.cc
rapidu.net.cc


Teens related to Young teens tube hot girls free porn video 2142


Wow Girls Porn Clips download 225841 ryushare uploaded keep2share

Wow Girls Porn Clips download 225841

Stella Cox – No Panties ryushare uploaded keep2share

Stella Cox – No Panties

hd 1taem xxx video ryushare uploaded keep2share

hd 1taem xxx video

Teen porn movies 1607 ryushare uploaded keep2share

Teen porn movies 1607

Hot Teen Sex HD videos 225940 ryushare uploaded keep2share

Hot Teen Sex HD videos 225940

HD teen sex tube 3887 ryushare uploaded keep2share

HD teen sex tube 3887

www pinkworld hd movies com 226583 ryushare uploaded keep2share

www pinkworld hd movies com 226583

Adult Hardcore XXX Sex Videos 4188 ryushare uploaded keep2share

Adult Hardcore XXX Sex Videos 4188

Xxx x uploded haigh quality photos 226705 ryushare uploaded keep2share

Xxx x uploded haigh quality photos 226705

xixx x video hd com ryushare uploaded keep2share

xixx x video hd com

Teen Sex Movies 1242 ryushare uploaded keep2share

Teen Sex Movies 1242

HQ Sex Movies Download 1511 ryushare uploaded keep2share

HQ Sex Movies Download 1511

hd porn movi downlod 226138 ryushare uploaded keep2share

hd porn movi downlod 226138

xxx video 6teen Hd ryushare uploaded keep2share

xxx video 6teen Hd

HDMassagePorn – Gianna – Sporty Blonde In Hot HD Porn ryushare uploaded keep2share

HDMassagePorn – Gianna – Sporty Blonde In Hot HD Porn

Anal Awakening ryushare uploaded keep2share

Anal Awakening

Milagres – A Cool Tool For Me ryushare uploaded keep2share

Milagres – A Cool Tool For Me

Amateur Teen Sex 4729 ryushare uploaded keep2share

Amateur Teen Sex 4729

Www porn movie mkv download com 226307 ryushare uploaded keep2share

Www porn movie mkv download com 226307

Girls sex art hd teens videos 225510 ryushare uploaded keep2share

Girls sex art hd teens videos 225510

HD Teens Sex Tube Videos XxX 225345 ryushare uploaded keep2share

HD Teens Sex Tube Videos XxX 225345

[MyFirstSexTeacher.com / NaughtyAmerica.com] Olivia Austin (01.12.2016) [Big Tits,Blonde,Blow Job,Bubble Butt,Caucasian,Cum on Tits,Deepthroating,High Heels,Outie Pussy,Shaved,Stockings,Tattoos,Titty Fucking, 1080p] ryushare uploaded keep2share

[MyFirstSexTeacher.com / NaughtyAmerica.com] Olivia Austin (01.12.2016) [Big Tits,Blonde,Blow Job,Bubble Butt,Caucasian,Cum on Tits,Deepthroating,High Heels,Outie Pussy,Shaved,Stockings,Tattoos,Titty Fucking, 1080p]

HD Porn Teen Sex Videos 1479 ryushare uploaded keep2share

HD Porn Teen Sex Videos 1479

Free Teen Porn Videos at Teen Sex Tube XXX 225611 ryushare uploaded keep2share

Free Teen Porn Videos at Teen Sex Tube XXX 225611

K Three Teasing Tongues 5 – A ryushare uploaded keep2share

K Three Teasing Tongues 5 – A

hd 1080p xxx video pornstar 226170 ryushare uploaded keep2share

hd 1080p xxx video pornstar 226170

cina video hdxxx 226321 ryushare uploaded keep2share

cina video hdxxx 226321

High Definition Movies on HD Teen Porn XXX Tube 1708 ryushare uploaded keep2share

High Definition Movies on HD Teen Porn XXX Tube 1708

hd images fucking sex 226738 ryushare uploaded keep2share

hd images fucking sex 226738

Girls sex art hd teens videos 223832 ryushare uploaded keep2share

Girls sex art hd teens videos 223832

Teenage Fuck Clips 2933 ryushare uploaded keep2share

Teenage Fuck Clips 2933

purn 720 com ryushare uploaded keep2share

purn 720 com

me bbxxxhd 226343 ryushare uploaded keep2share

me bbxxxhd 226343

Teen Tits Tube, Young Girls Porn Videos 1565 ryushare uploaded keep2share

Teen Tits Tube, Young Girls Porn Videos 1565

Teen Porn XXX Tube 1144 ryushare uploaded keep2share

Teen Porn XXX Tube 1144

Report broken links / Post a comment

You must be logged in to post a comment.



General\r\nComplete name : D:HD Teens Download Porn Sex clips movies TubeMNDGRBty.wmv\r\nFormat : Windows Media\r\nFile size : 653 MiB\r\nDuration : 21mn 31s\r\nOverall bit rate mode : Constant\r\nOverall bit rate : 4 241 Kbps\r\nMaximum Overall bit rate : 4 258 Kbps\r\nEncoded date : UTC 2010-01-24 19:12:55.492\r\n\r\nVideo\r\nID : 2\r\nFormat : VC-1\r\nFormat profile : [email protected]\r\nCodec ID : WMV3\r\nCodec ID/Info : Windows Media Video 9\r\nCodec ID/Hint : WMV3\r\nDescription of the codec : Windows Media Video 9 - Professional\r\nDuration : 21mn 31s\r\nBit rate mode : Constant\r\nBit rate : 4 096 Kbps\r\nWidth : 1 280 pixels\r\nHeight : 720 pixels\r\nDisplay aspect ratio : 16:9\r\nFrame rate : 25.000 fps\r\nColor space : YUV\r\nChroma subsampling : 4:2:0\r\nBit depth : 8 bits\r\nScan type : Progressive\r\nCompression mode : Lossy\r\nBits/(Pixel*Frame) : 0.178\r\nStream size : 631 MiB (97%)\r\nLanguage : Russian\r\nNumberOfFrames : 32279\r\n\r\nAudio\r\nID : 1\r\nFormat : WMA\r\nFormat version : Version 2\r\nCodec ID : 161\r\nCodec ID/Info : Windows Media Audio\r\nDescription of the codec : Windows Media Audio 9.2 - 128 kbps, 44 kHz, stereo 1-pass CBR\r\nDuration : 21mn 31s\r\nBit rate mode : Constant\r\nBit rate : 128 Kbps\r\nChannel(s) : 2 channels\r\nSampling rate : 44.1 KHz\r\nBit depth : 16 bits\r\nStream size : 19.7 MiB (3%)\r\nLanguage : Russian\r\nNumberOfFrames : 3479\r\n\r\n