Young teens tube hot girls free porn video 1794

HD porn uploaded 3036Wow girls porn teens 3033

Posted in HD Porn, Pornstar, Sex Movies, Teen | 5670 Views |


Rate this girl !!!




\r\n\r\n,\r\n\r\n\r\nhttp://img56.imagetwist.com/i/05280/avi1hhjzg7ap.jpghttp://img56.imagetwist.com/i/05280/avi1hhjzg7ap.jpg\r\n\r\n Link(374 Mb||20:26||1280*720||MP4)



DOWNLOAD

Keep2share.cc - Uploaded.net - Openload.co - Rapidu.net


http://k2s.cc/file/6d2833d171b97/SBMDCNzy.mp4
http://ryushare.com/8434949khzqe/SBMDCNzy.mp4
http://ul.to/d62pompx/SBMDCNzy.mp4


Premium here:
uploaded.net
keep2share.cc
rapidu.net.cc


Teens related to Young teens tube hot girls free porn video 1794


HD Porn Teen Sex Videos 2979 ryushare uploaded keep2share

HD Porn Teen Sex Videos 2979

HD Teen Sex Tube 4271 ryushare uploaded keep2share

HD Teen Sex Tube 4271

www hd sex world moves 226438 ryushare uploaded keep2share

www hd sex world moves 226438

Teenage Fuck Clips 1591 ryushare uploaded keep2share

Teenage Fuck Clips 1591

Hardcore sex videos in the high definition quality 225432 ryushare uploaded keep2share

Hardcore sex videos in the high definition quality 225432

Ariana Marie – Post Workout Sex ryushare uploaded keep2share

Ariana Marie – Post Workout Sex

Young Sex Movies 4407 ryushare uploaded keep2share

Young Sex Movies 4407

Xxx 888 226518 ryushare uploaded keep2share

Xxx 888 226518

xxx hd smoll garls video com ryushare uploaded keep2share

xxx hd smoll garls video com

The best Teen sex 4606 ryushare uploaded keep2share

The best Teen sex 4606

Sara Luvv – Dorm Room Invitation ryushare uploaded keep2share

Sara Luvv – Dorm Room Invitation

Teen Pornstars Orgy ryushare uploaded keep2share

Teen Pornstars Orgy

Hot Teen Sex HD videos 2905 ryushare uploaded keep2share

Hot Teen Sex HD videos 2905

Fresh Teen Videos 223852 ryushare uploaded keep2share

Fresh Teen Videos 223852

Hot hd teen sex videos 4668 ryushare uploaded keep2share

Hot hd teen sex videos 4668

Wow porn hd downloads 225727 ryushare uploaded keep2share

Wow porn hd downloads 225727

High Definition Movies on HD 4195 ryushare uploaded keep2share

High Definition Movies on HD 4195

Naomi Nevena ryushare uploaded keep2share

Naomi Nevena

August – August Fantasy ryushare uploaded keep2share

August – August Fantasy

WowPorn.com Michelle,The Primal Need For Love. RED ryushare uploaded keep2share

WowPorn.com Michelle,The Primal Need For Love. RED

Www sexy videos shart mb com 226066 ryushare uploaded keep2share

Www sexy videos shart mb com 226066

Hd quality – Teen sex video 1722 ryushare uploaded keep2share

Hd quality – Teen sex video 1722

Teen 18 Porn XXX Clips Naked 1367 ryushare uploaded keep2share

Teen 18 Porn XXX Clips Naked 1367

Free Porn Videos Xxx Movies Pussy Porn 1302 ryushare uploaded keep2share

Free Porn Videos Xxx Movies Pussy Porn 1302

Young 720p hd porn 3634 ryushare uploaded keep2share

Young 720p hd porn 3634

Asian Amateur Video ryushare uploaded keep2share

Asian Amateur Video

89 com hd vedeos 226744 ryushare uploaded keep2share

89 com hd vedeos 226744

Hd quality – Teen sex video 1289 ryushare uploaded keep2share

Hd quality – Teen sex video 1289

WowGirls.com Vanda – The pleasure Is All Mine ryushare uploaded keep2share

WowGirls.com Vanda – The pleasure Is All Mine

Adult Hardcore XXX Sex Videos 224399 ryushare uploaded keep2share

Adult Hardcore XXX Sex Videos 224399

HD Sex World Videos High Definition Free Porn 2359 ryushare uploaded keep2share

HD Sex World Videos High Definition Free Porn 2359

Sweet Teen Porn – Young Porn Videos 2093 ryushare uploaded keep2share

Sweet Teen Porn – Young Porn Videos 2093

Hd young videos 4536 ryushare uploaded keep2share

Hd young videos 4536

Nude Teens fucking hard 4199 ryushare uploaded keep2share

Nude Teens fucking hard 4199

HD Teens Sex Tube Videos XxX 225747 ryushare uploaded keep2share

HD Teens Sex Tube Videos XxX 225747

Report broken links / Post a comment

You must be logged in to post a comment.



General\r\nComplete name : D:HD Porn Teens Sex download movies tube online tubeSBMDCNzy.mp4\r\nFormat : MPEG-4\r\nFormat profile : Base Media\r\nCodec ID : isom\r\nFile size : 374 MiB\r\nDuration : 20mn 26s\r\nOverall bit rate mode : Variable\r\nOverall bit rate : 2 558 Kbps\r\nWriting application : Lavf54.22.100\r\n\r\nVideo\r\nID : 1\r\nFormat : MPEG-4 Visual\r\nFormat profile : [email protected]\r\nFormat settings, BVOP : No\r\nFormat settings, QPel : No\r\nFormat settings, GMC : No warppoints\r\nFormat settings, Matrix : Default (H.263)\r\nCodec ID : 20\r\nDuration : 20mn 26s\r\nBit rate mode : Variable\r\nBit rate : 2 435 Kbps\r\nMaximum bit rate : 5 000 Kbps\r\nWidth : 1 280 pixels\r\nHeight : 720 pixels\r\nDisplay aspect ratio : 16:9\r\nFrame rate mode : Constant\r\nFrame rate : 25.000 fps\r\nColor space : YUV\r\nChroma subsampling : 4:2:0\r\nBit depth : 8 bits\r\nScan type : Progressive\r\nCompression mode : Lossy\r\nBits/(Pixel*Frame) : 0.106\r\nStream size : 356 MiB (95%)\r\nWriting library : Lavc54.46.100\r\nLanguage : English\r\n\r\nAudio\r\nID : 2\r\nFormat : AAC\r\nFormat/Info : Advanced Audio Codec\r\nFormat profile : LC\r\nCodec ID : 40\r\nDuration : 20mn 26s\r\nDuration_LastFrame : -1ms\r\nBit rate mode : Variable\r\nBit rate : 118 Kbps\r\nMaximum bit rate : 128 Kbps\r\nChannel(s) : 2 channels\r\nChannel positions : Front: L R\r\nSampling rate : 48.0 KHz\r\nCompression mode : Lossy\r\nStream size : 17.3 MiB (5%)\r\nLanguage : English\r\n\r\n