Young Sex Movies 3635

Sweet Teen Porn - Young Porn Videos 3641Young 720p hd porn 3634

Posted in Amateur, HD Porn, Sex Movies, Teen | 9992 Views |


Rate this girl !!!




\r\n\r\n\r\n\r\n\r\n



DOWNLOAD

Keep2share.cc - Uploaded.net - Openload.co - Rapidu.net


http://fileom.com/0cpfp3ox8rm3/TRPNGns.mp4.html
http://ryushare.com/hnuagb3ts3d6/TRPNGns.mp4
http://ul.to/hmalxul4/TRPNGns.mp4
http://k2s.cc/file/6f70fe187b315/TRPNGns.mp4


Premium here:
uploaded.net
keep2share.cc
rapidu.net.cc


Teens related to Young Sex Movies 3635


Young teens tube hot girls free porn video 5570 ryushare uploaded keep2share

Young teens tube hot girls free porn video 5570

The best Teen sex 5166 ryushare uploaded keep2share

The best Teen sex 5166

K Three Teasing Tongues 3 ryushare uploaded keep2share

K Three Teasing Tongues 3

Young Virgin Pussy Teen Fuck Tube 4403 ryushare uploaded keep2share

Young Virgin Pussy Teen Fuck Tube 4403

Good Teen Tube Sexy Young Naked Girls Movies 1427 ryushare uploaded keep2share

Good Teen Tube Sexy Young Naked Girls Movies 1427

Teen Sex Videos Big Tits Amateur 4768 ryushare uploaded keep2share

Teen Sex Videos Big Tits Amateur 4768

Tube xxx 5014 ryushare uploaded keep2share

Tube xxx 5014

HD Teen Sex Tube 5118 ryushare uploaded keep2share

HD Teen Sex Tube 5118

Hardcore sex videos in the high definition quality 1934 ryushare uploaded keep2share

Hardcore sex videos in the high definition quality 1934

89 xxx he video in 226441 ryushare uploaded keep2share

89 xxx he video in 226441

Dani Daniels HD Hot Teen ryushare uploaded keep2share

Dani Daniels HD Hot Teen

tube sex 17 girl ryushare uploaded keep2share

tube sex 17 girl

Candice Dare – Shopping Spree ryushare uploaded keep2share

Candice Dare – Shopping Spree

xxx hd move Hq 226564 ryushare uploaded keep2share

xxx hd move Hq 226564

Sex in the morning ryushare uploaded keep2share

Sex in the morning

www xvedeo comhd ryushare uploaded keep2share

www xvedeo comhd

Teen sex xxx hd 4873 ryushare uploaded keep2share

Teen sex xxx hd 4873

proun hup xxx video mp4 ryushare uploaded keep2share

proun hup xxx video mp4

College Teen Sex 1992 ryushare uploaded keep2share

College Teen Sex 1992

TrickyMasseur.com Joanna ryushare uploaded keep2share

TrickyMasseur.com Joanna

free download sovjetmassage com 226506 ryushare uploaded keep2share

free download sovjetmassage com 226506

Teen xxx sex hd 224959 ryushare uploaded keep2share

Teen xxx sex hd 224959

Teen Sex Movies Young Porn Tube Vids 225963 ryushare uploaded keep2share

Teen Sex Movies Young Porn Tube Vids 225963

8 Teen XXX – Teen Sex 224806 ryushare uploaded keep2share

8 Teen XXX – Teen Sex 224806

teensex mp4 hd download 226542 ryushare uploaded keep2share

teensex mp4 hd download 226542

www 3x saxy praan video com ryushare uploaded keep2share

www 3x saxy praan video com

porn movies ass fucking mkv download 226144 ryushare uploaded keep2share

porn movies ass fucking mkv download 226144

Www Xxxsex video18 ryushare uploaded keep2share

Www Xxxsex video18

Linda S – YES Girl ryushare uploaded keep2share

Linda S – YES Girl

Hot download sex girls movies 224257 ryushare uploaded keep2share

Hot download sex girls movies 224257

Just Clara ryushare uploaded keep2share

Just Clara

1020p hd sex videos 226575 ryushare uploaded keep2share

1020p hd sex videos 226575

College Teen Sex 225537 ryushare uploaded keep2share

College Teen Sex 225537

Teenies Videos – Teen Porn, Teen Sex, XXX Free Videos 1152 ryushare uploaded keep2share

Teenies Videos – Teen Porn, Teen Sex, XXX Free Videos 1152

Teen porn movies 225949 ryushare uploaded keep2share

Teen porn movies 225949

Report broken links / Post a comment

You must be logged in to post a comment.



General\r\nComplete name : D:hd pornstars teens ryushare.com uploaded.net keep2share.cc fileom.com download porn movies clips couple young fucking ibizaTRPNGns.mp4\r\nFormat : MPEG-4\r\nFormat profile : Base Media\r\nCodec ID : isom\r\nFile size : 1.26 GiB\r\nDuration : 37mn 47s\r\nOverall bit rate : 4 771 Kbps\r\nWriting application : Lavf55.22.103\r\n\r\nVideo\r\nID : 1\r\nFormat : AVC\r\nFormat/Info : Advanced Video Codec\r\nFormat profile : [email protected]\r\nFormat settings, CABAC : Yes\r\nFormat settings, ReFrames : 5 frames\r\nCodec ID : avc1\r\nCodec ID/Info : Advanced Video Coding\r\nDuration : 37mn 47s\r\nBit rate : 4 637 Kbps\r\nWidth : 1 280 pixels\r\nHeight : 720 pixels\r\nDisplay aspect ratio : 16:9\r\nFrame rate mode : Constant\r\nFrame rate : 25.000 fps\r\nColor space : YUV\r\nChroma subsampling : 4:2:0\r\nBit depth : 8 bits\r\nScan type : Progressive\r\nBits/(Pixel*Frame) : 0.201\r\nStream size : 1.22 GiB (97%)\r\nWriting library : x264 core 140 r2377 1ca7bb9\r\nEncoding settings : cabac=1 / ref=5 / deblock=1:0:0 / analyse=0x3:0x113 / me=umh / subme=8 / psy=1 / psy_rd=1.00:0.00 / mixed_ref=1 / me_range=16 / chroma_me=1 / trellis=1 / 8x8dct=1 / cqm=0 / deadzone=21,11 / fast_pskip=1 / chroma_qp_offset=2 / threads=6 / lookahead_threads=1 / sliced_threads=0 / nr=0 / decimate=1 / interlaced=0 / bluray_compat=0 / constrained_intra=0 / bframes=3 / b_pyramid=2 / b_adapt=2 / b_bias=0 / direct=3 / weightb=1 / open_gop=0 / weightp=2 / keyint=150 / keyint_min=15 / scenecut=40 / intra_refresh=0 / rc_lookahead=50 / rc=crf / mbtree=1 / crf=20.0 / qcomp=0.60 / qpmin=0 / qpmax=69 / qpstep=4 / vbv_maxrate=6000 / vbv_bufsize=6000 / crf_max=0.0 / nal_hrd=none / filler=0 / ip_ratio=1.40 / aq=1:1.00\r\n\r\nAudio\r\nID : 2\r\nFormat : AAC\r\nFormat/Info : Advanced Audio Codec\r\nFormat profile : LC\r\nCodec ID : 40\r\nDuration : 37mn 47s\r\nDuration_LastFrame : -10ms\r\nBit rate mode : Constant\r\nBit rate : 128 Kbps\r\nChannel(s) : 2 channels\r\nChannel positions : Front: L R\r\nSampling rate : 44.1 KHz\r\nCompression mode : Lossy\r\nStream size : 34.6 MiB (3%)\r\n\r\nhd pornstars teens ryushare.com uploaded.net keep2share.cc fileom.com download porn movies clips couple young fucking ibiza