Young 720p hd porn 3776

Teenage Fuck Clips 3779Uploaded net porn 3760

Posted in HD Porn, Pornstar, Sex Movies, Teen | 9907 Views |


Rate this girl !!!




cover\r\n\r\nscreens



DOWNLOAD

Keep2share.cc - Uploaded.net - Openload.co - Rapidu.net


http://fileom.com/hhjfnhmjrie6/r.ed_f.ox_g.o_d.own_o.n_m.e_10.80.mp4.html
http://k2s.cc/file/d1b34759365f8/r.ed_f.ox_g.o_d.own_o.n_m.e_10.80.mp4
http://ryushare.com/je48d7d6xy7e/r.ed_f.ox_g.o_d.own_o.n_m.e_10.80.mp4
http://ul.to/v3esj1py/r.ed_f.ox_g.o_d.own_o.n_m.e_10.80.mp4


Premium here:
uploaded.net
keep2share.cc
rapidu.net.cc


Teens related to Young 720p hd porn 3776


Hot sex girls movies download 3478 ryushare uploaded keep2share

Hot sex girls movies download 3478

Teen Sex Videos Tube Movies 225416 ryushare uploaded keep2share

Teen Sex Videos Tube Movies 225416

Teen Porn XXX Tube 225861 ryushare uploaded keep2share

Teen Porn XXX Tube 225861

TrickyMasseur.com Anjelica ryushare uploaded keep2share

TrickyMasseur.com Anjelica

Hot Teen Sex HD videos 3863 ryushare uploaded keep2share

Hot Teen Sex HD videos 3863

fast tiam movie hot xxx hd free 226715 ryushare uploaded keep2share

fast tiam movie hot xxx hd free 226715

Teen porn movies 225402 ryushare uploaded keep2share

Teen porn movies 225402

Tracy Smile ryushare uploaded keep2share

Tracy Smile

Wow porn tube movies 225396 ryushare uploaded keep2share

Wow porn tube movies 225396

Summer Breeze and Victoria Tiffani ryushare uploaded keep2share

Summer Breeze and Victoria Tiffani

caprice videos xxx ryushare uploaded keep2share

caprice videos xxx

xxx hd art videos download 226012 ryushare uploaded keep2share

xxx hd art videos download 226012

8 Teen XXX – Teen Sex 1972 ryushare uploaded keep2share

8 Teen XXX – Teen Sex 1972

Edge play with Anabelle and Ashlynn ryushare uploaded keep2share

Edge play with Anabelle and Ashlynn

beata russian tean porn 226488 ryushare uploaded keep2share

beata russian tean porn 226488

xxx full hd yang garls 226186 ryushare uploaded keep2share

xxx full hd yang garls 226186

HD Teens Sex Tube Videos XxX 225747 ryushare uploaded keep2share

HD Teens Sex Tube Videos XxX 225747

Teen 18 Porn XXX Clips Naked 2154 ryushare uploaded keep2share

Teen 18 Porn XXX Clips Naked 2154

HD Porn Videos 1486 ryushare uploaded keep2share

HD Porn Videos 1486

HD sex movies downloads 3866 ryushare uploaded keep2share

HD sex movies downloads 3866

teens xxx vetiyos ryushare uploaded keep2share

teens xxx vetiyos

Wow girls hd porn teens 225278 ryushare uploaded keep2share

Wow girls hd porn teens 225278

gibitube com porn 226071 ryushare uploaded keep2share

gibitube com porn 226071

Young Virgin Pussy Teen Fuck Tube 2315 ryushare uploaded keep2share

Young Virgin Pussy Teen Fuck Tube 2315

porn sex full hd high quality free downloding 226345 ryushare uploaded keep2share

porn sex full hd high quality free downloding 226345

Kennedy Leigh – Out With A Bang ryushare uploaded keep2share

Kennedy Leigh – Out With A Bang

HD porn uploaded 3712 ryushare uploaded keep2share

HD porn uploaded 3712

Teen porn movies 1607 ryushare uploaded keep2share

Teen porn movies 1607

Girls sex art hd teens videos 225147 ryushare uploaded keep2share

Girls sex art hd teens videos 225147

sexy video HD down ryushare uploaded keep2share

sexy video HD down

Silvie Deluxe & Matt Ice – Drive ryushare uploaded keep2share

Silvie Deluxe & Matt Ice – Drive

hd low space porn video ryushare uploaded keep2share

hd low space porn video

16 xxx ryushare uploaded keep2share

16 xxx

Hd young videos 1872 ryushare uploaded keep2share

Hd young videos 1872

HQ Sex Movies Download 225481 ryushare uploaded keep2share

HQ Sex Movies Download 225481

Report broken links / Post a comment

You must be logged in to post a comment.



General\r\nComplete name : D:hd pornstars teens ryushare.com uploaded.net keep2share.cc fileom.com streamcloud.eu allmyvideos.net ul.to download porn movies clips r.ed_f.ox_g.o_d.own_o.n_m.e_10.80.mp4\r\nFormat : MPEG-4\r\nFormat profile : Base Media\r\nCodec ID : isom\r\nFile size : 880 MiB\r\nDuration : 17mn 8s\r\nOverall bit rate mode : Variable\r\nOverall bit rate : 7 176 Kbps\r\nWriting application : Lavf55.33.101\r\n\r\nVideo\r\nID : 1\r\nFormat : MPEG-4 Visual\r\nFormat profile : [email protected]\r\nFormat settings, BVOP : No\r\nFormat settings, QPel : No\r\nFormat settings, GMC : No warppoints\r\nFormat settings, Matrix : Default (H.263)\r\nCodec ID : 20\r\nDuration : 17mn 8s\r\nBit rate mode : Variable\r\nBit rate : 7 045 Kbps\r\nMaximum bit rate : 8 500 Kbps\r\nWidth : 1 920 pixels\r\nHeight : 1 080 pixels\r\nDisplay aspect ratio : 16:9\r\nFrame rate mode : Constant\r\nFrame rate : 25.000 fps\r\nColor space : YUV\r\nChroma subsampling : 4:2:0\r\nBit depth : 8 bits\r\nScan type : Progressive\r\nCompression mode : Lossy\r\nBits/(Pixel*Frame) : 0.136\r\nStream size : 864 MiB (98%)\r\nWriting library : Lavc55.52.102\r\nLanguage : English\r\n\r\nAudio\r\nID : 2\r\nFormat : AAC\r\nFormat/Info : Advanced Audio Codec\r\nFormat profile : LC\r\nCodec ID : 40\r\nDuration : 17mn 8s\r\nBit rate mode : Constant\r\nBit rate : 127 Kbps\r\nChannel(s) : 2 channels\r\nChannel positions : Front: L R\r\nSampling rate : 48.0 KHz\r\nCompression mode : Lossy\r\nStream size : 15.6 MiB (2%)\r\nLanguage : English\r\n\r\n