WowGirls.com Linda Sweet, Lucy Li – True Fulfillment

JoyMii.com Lara – Getting LaidCastingcouch-X.com Kaylee Haze

Posted in HD Porn, Sex Movies, Teen, Threesome | 10678 Views |


Rate this girl !!!




cover\r\n\r\n1920x1080p / MP4 / 1019.98 MB\r\n

 [WowGirls.com] Linda Sweet, Lucy Li – True Fulfillment

\r\n \r\n\r\nSCREENSHOTS:\r\n\r\nscreens



DOWNLOAD

Keep2share.cc - Uploaded.net - Openload.co - Rapidu.net


http://played.to/u61rentsesiw
http://ul.to/au7bw187/Lvcy.L1.L1nd4.Sw33t.Trv3.Fvlf1llm3nt.HD1080.mp4



Premium here:
uploaded.net
keep2share.cc
rapidu.net.cc


Teens related to WowGirls.com Linda Sweet, Lucy Li – True Fulfillment


wwwten sex hd com 226451 ryushare uploaded keep2share

wwwten sex hd com 226451

21Naturals.com Michelle Moore – Blindfolded ryushare uploaded keep2share

21Naturals.com Michelle Moore – Blindfolded

Teenies Videos – Teen Porn, Teen Sex, XXX Free Videos 4372 ryushare uploaded keep2share

Teenies Videos – Teen Porn, Teen Sex, XXX Free Videos 4372

Good Teen Tube Sexy Young Naked Girls Movies 2157 ryushare uploaded keep2share

Good Teen Tube Sexy Young Naked Girls Movies 2157

Hd young videos 2232 ryushare uploaded keep2share

Hd young videos 2232

Nude Teens fucking hard 4300 ryushare uploaded keep2share

Nude Teens fucking hard 4300

young xxx porn hd ryushare uploaded keep2share

young xxx porn hd

hd short heighted pron movies 226316 ryushare uploaded keep2share

hd short heighted pron movies 226316

xxx18 yes 226216 ryushare uploaded keep2share

xxx18 yes 226216

download free xxx sex hd 226387 ryushare uploaded keep2share

download free xxx sex hd 226387

Julie Vee ryushare uploaded keep2share

Julie Vee

ww pink world net ryushare uploaded keep2share

ww pink world net

Young 720p hd porn 4917 ryushare uploaded keep2share

Young 720p hd porn 4917

Sex with porn model in garaje Orgy Threesome 4772 ryushare uploaded keep2share

Sex with porn model in garaje Orgy Threesome 4772

Girls do porn downloads 3828 ryushare uploaded keep2share

Girls do porn downloads 3828

Wow porn tube movies 224392 ryushare uploaded keep2share

Wow porn tube movies 224392

Amateur Teen Sex 5465 ryushare uploaded keep2share

Amateur Teen Sex 5465

8 Teen XXX – Teen Sex 2117 ryushare uploaded keep2share

8 Teen XXX – Teen Sex 2117

HD Teen Sex Tube 3572 ryushare uploaded keep2share

HD Teen Sex Tube 3572

2016 hd vizyon sexy cd filmler ryushare uploaded keep2share

2016 hd vizyon sexy cd filmler

Teen Tits Tube, Young Girls Porn Videos 225086 ryushare uploaded keep2share

Teen Tits Tube, Young Girls Porn Videos 225086

High Definition Movies on HD Teen Porn XXX Tube 1687 ryushare uploaded keep2share

High Definition Movies on HD Teen Porn XXX Tube 1687

Teen Porn XXX Tube 224909 ryushare uploaded keep2share

Teen Porn XXX Tube 224909

Teen Sex Movies 225206 ryushare uploaded keep2share

Teen Sex Movies 225206

www18sexivideo com ryushare uploaded keep2share

www18sexivideo com

Teen xxx sex hd 225384 ryushare uploaded keep2share

Teen xxx sex hd 225384

Young Sex Movies 224182 ryushare uploaded keep2share

Young Sex Movies 224182

sexHD videos mkv ryushare uploaded keep2share

sexHD videos mkv

21 sextury hd resimler 226581 ryushare uploaded keep2share

21 sextury hd resimler 226581

www xxx hot 18 hd videos com ryushare uploaded keep2share

www xxx hot 18 hd videos com

Free Porn Videos Xxx Movies Pussy Porn 1568 ryushare uploaded keep2share

Free Porn Videos Xxx Movies Pussy Porn 1568

Casting Vikki 1080p ryushare uploaded keep2share

Casting Vikki 1080p

K Craving Lips 4 – CLIP B ryushare uploaded keep2share

K Craving Lips 4 – CLIP B

Wow Girls Porn Clips download 223967 ryushare uploaded keep2share

Wow Girls Porn Clips download 223967

Two Teasing Tongues 9 ryushare uploaded keep2share

Two Teasing Tongues 9

Report broken links / Post a comment

You must be logged in to post a comment.



[WowGirls.com] Linda Sweet, Lucy Li – True Fulfillment \r\nGeneral\r\nComplete name : J:HD Teens Movies Young Downloads Online Clips Scenes [WowGirls.com] Linda Sweet, Lucy Li – True Fulfillment .HD1080.mp4\r\nFormat : MPEG-4\r\nFormat profile : Base Media\r\nCodec ID : isom\r\nFile size : 1 020 MiB\r\nDuration : 24mn 16s\r\nOverall bit rate mode : Variable\r\nOverall bit rate : 5 874 Kbps\r\nWriting application : Lavf55.33.100\r\n\r\nVideo\r\nID : 1\r\nFormat : AVC\r\nFormat/Info : Advanced Video Codec\r\nFormat profile : [email protected]\r\nFormat settings, CABAC : Yes\r\nFormat settings, ReFrames : 5 frames\r\nCodec ID : avc1\r\nCodec ID/Info : Advanced Video Coding\r\nDuration : 24mn 16s\r\nBit rate : 5 774 Kbps\r\nWidth : 1 920 pixels\r\nHeight : 1 080 pixels\r\nDisplay aspect ratio : 16:9\r\nFrame rate mode : Constant\r\nFrame rate : 29.970 fps\r\nColor space : YUV\r\nChroma subsampling : 4:2:0\r\nBit depth : 8 bits\r\nScan type : Progressive\r\nBits/(Pixel*Frame) : 0.093\r\nStream size : 1 002 MiB (98%)\r\nWriting library : x264 core 138\r\nEncoding settings : cabac=1 / ref=5 / deblock=1:-1:-1 / analyse=0x3:0x113 / me=umh / subme=8 / psy=1 / psy_rd=1.00:0.15 / mixed_ref=1 / me_range=16 / chroma_me=1 / trellis=1 / 8x8dct=1 / cqm=0 / deadzone=21,11 / fast_pskip=1 / chroma_qp_offset=-3 / threads=8 / lookahead_threads=1 / sliced_threads=0 / nr=0 / decimate=1 / interlaced=0 / bluray_compat=0 / constrained_intra=0 / bframes=3 / b_pyramid=2 / b_adapt=2 / b_bias=0 / direct=3 / weightb=1 / open_gop=0 / weightp=2 / keyint=250 / keyint_min=25 / scenecut=40 / intra_refresh=0 / rc_lookahead=50 / rc=crf / mbtree=1 / crf=20.0 / qcomp=0.60 / qpmin=0 / qpmax=69 / qpstep=4 / ip_ratio=1.40 / aq=1:1.00\r\nLanguage : Russian\r\n\r\nAudio\r\nID : 2\r\nFormat : AAC\r\nFormat/Info : Advanced Audio Codec\r\nFormat profile : LC\r\nCodec ID : 40\r\nDuration : 24mn 16s\r\nBit rate mode : Variable\r\nBit rate : 91.3 Kbps\r\nMaximum bit rate : 192 Kbps\r\nChannel count : 2 channels\r\nChannel positions : Front: L R\r\nSampling rate : 44.1 KHz\r\nCompression mode : Lossy\r\nStream size : 15.9 MiB (2%)\r\nLanguage : Russian\r\n\r\n