Who Let The Dogs Out? – WowGirls

Marry - Time To Myself - NubilesLola Taylor - Russian Pornstar

Posted in HD Porn, Pornstar, Sex Movies, Teen, Threesome | 19750 Views |


Rate this girl !!!




[WowGirls.com] Aimee Ryan, Anjelica, Nancey – Who Let The Dogs Out? \r\n\r\npic\r\n\r\n[WowGirls.com] Aimee Ryan, Anjelica, Nancey – Who Let The Dogs Out? [2013, All Sex, FFFM, Blowjob, Rimming, 4Some, Shaved, Oral, Music, Young, Siteripsch\r\nProduction year: 2013\r\nSubsite and site: WowGirls.com\r\nGenre: All Sex, FFFM, Blowjob, Rimming, 4Some, Shaved, Oral, Music, Young\r\nDuration: 00:25:02\r\n\r\npic\r\n\r\nhttp://i60.fastpic.ru/big/2013/0909/eb/27efd6f7125031bc6c0a6746ab209aeb.jpeg



DOWNLOAD

Keep2share.cc - Uploaded.net - Openload.co - Rapidu.net


http://keep2share.cc/file/52e70a4f9e36e
http://ryushare.com/5zj58kvxi2s3/nvb1les_m4rry_2v_time-to-myself1280_full.rar
http://ul.to/dcre2ctu


Premium here:
uploaded.net
keep2share.cc
rapidu.net.cc

Teens related to Who Let The Dogs Out? – WowGirls


Teen Sex Movies 3927 ryushare uploaded keep2share

Teen Sex Movies 3927

Teen Sex Movies Young Porn Tube Vids 5156 ryushare uploaded keep2share

Teen Sex Movies Young Porn Tube Vids 5156

no turning back now and part one in free x art 226020 ryushare uploaded keep2share

no turning back now and part one in free x art 226020

nubilefilms com/youporn december 2014 226042 ryushare uploaded keep2share

nubilefilms com/youporn december 2014 226042

hd xxx teens virgintiy videos free download 226703 ryushare uploaded keep2share

hd xxx teens virgintiy videos free download 226703

Hot Teen Sex HD videos 2172 ryushare uploaded keep2share

Hot Teen Sex HD videos 2172

First time Sexual Films 18 sex xxx 4421 ryushare uploaded keep2share

First time Sexual Films 18 sex xxx 4421

iglish porn sexi 226443 ryushare uploaded keep2share

iglish porn sexi 226443

Good Teen Tube Sexy Young Naked Girls Movies 1543 ryushare uploaded keep2share

Good Teen Tube Sexy Young Naked Girls Movies 1543

Wow Porn Movies download) 224280 ryushare uploaded keep2share

Wow Porn Movies download) 224280

Teen Sex Porn Videos Free Nude Teens 3857 ryushare uploaded keep2share

Teen Sex Porn Videos Free Nude Teens 3857

HD Teens Sex Tube Videos XxX 225345 ryushare uploaded keep2share

HD Teens Sex Tube Videos XxX 225345

Free Teen Porn Videos at Teen Sex Tube XXX 224751 ryushare uploaded keep2share

Free Teen Porn Videos at Teen Sex Tube XXX 224751

21Naturals.com Alysa Gap ryushare uploaded keep2share

21Naturals.com Alysa Gap

Free Porn Videos Xxx Movies Pussy Porn 3183 ryushare uploaded keep2share

Free Porn Videos Xxx Movies Pussy Porn 3183

Brunette bonk ryushare uploaded keep2share

Brunette bonk

Xxxxx suan mp4 226337 ryushare uploaded keep2share

Xxxxx suan mp4 226337

Teens in Porno young porn videos and free teen sex 225010 ryushare uploaded keep2share

Teens in Porno young porn videos and free teen sex 225010

bonksex videos ryushare uploaded keep2share

bonksex videos

Teen Sex Videos Tube Movies 224998 ryushare uploaded keep2share

Teen Sex Videos Tube Movies 224998

Private – Share The Cock And Keep Cum ryushare uploaded keep2share

Private – Share The Cock And Keep Cum

Wow girls downloads hd 224254 ryushare uploaded keep2share

Wow girls downloads hd 224254

Her Sweet Hand – Beatrice ryushare uploaded keep2share

Her Sweet Hand – Beatrice

High Definition Movies on HD 1754 ryushare uploaded keep2share

High Definition Movies on HD 1754

Teen sex xxx hd 2606 ryushare uploaded keep2share

Teen sex xxx hd 2606

X-Angels Licie ryushare uploaded keep2share

X-Angels Licie

ClubSeventeen.com SiteRip – Part 1 ryushare uploaded keep2share

ClubSeventeen.com SiteRip – Part 1

Teen 18 Porn XXX Clips Naked 224773 ryushare uploaded keep2share

Teen 18 Porn XXX Clips Naked 224773

HD Porn Video 1235 ryushare uploaded keep2share

HD Porn Video 1235

WoodmanCastingX Viola Bailey Hard mega co nz/|depositfiles com/files|uploaded to|ul to/ 226656 ryushare uploaded keep2share

WoodmanCastingX Viola Bailey Hard mega co nz/|depositfiles com/files|uploaded to|ul to/ 226656

wwwhd sax 99 com ryushare uploaded keep2share

wwwhd sax 99 com

Klixen – K Two Teasing Tongues 12 – A ryushare uploaded keep2share

Klixen – K Two Teasing Tongues 12 – A

Teen Sex Movies Young Porn Tube Vids 225369 ryushare uploaded keep2share

Teen Sex Movies Young Porn Tube Vids 225369

Wow Girls Porn Clips download 224386 ryushare uploaded keep2share

Wow Girls Porn Clips download 224386

The best Teen sex 223922 ryushare uploaded keep2share

The best Teen sex 223922

Report broken links / Post a comment

You must be logged in to post a comment.



General\r\nComplete name : D:[WowGirls.com] Aimee Ryan, Anjelica, Nancey - Who Let The Dogs Out?nubiles_marry_2v_time-to-myself1280_full.mp4\r\nFormat : MPEG-4\r\nFormat profile : Base Media\r\nCodec ID : isom\r\nFile size : 222 MiB\r\nDuration : 7mn 34s\r\nOverall bit rate mode : Variable\r\nOverall bit rate : 4 109 Kbps\r\nMovie name : Download from HDteenmania.com\r\nWriting application : Lavf55.19.104\r\nComment : Download from HDteenmania.com\r\n\r\nVideo\r\nID : 1\r\nFormat : AVC\r\nFormat/Info : Advanced Video Codec\r\nFormat profile : [email protected]\r\nFormat settings, CABAC : Yes\r\nFormat settings, ReFrames : 4 frames\r\nCodec ID : avc1\r\nCodec ID/Info : Advanced Video Coding\r\nDuration : 7mn 33s\r\nBit rate : 3 986 Kbps\r\nWidth : 1 280 pixels\r\nHeight : 720 pixels\r\nDisplay aspect ratio : 16:9\r\nFrame rate mode : Constant\r\nFrame rate : 29.970 fps\r\nColor space : YUV\r\nChroma subsampling : 4:2:0\r\nBit depth : 8 bits\r\nScan type : Progressive\r\nBits/(Pixel*Frame) : 0.144\r\nStream size : 216 MiB (97%)\r\nWriting library : x264 core 138\r\nEncoding settings : cabac=1 / ref=2 / deblock=1:-1:-1 / analyse=0x1:0x111 / me=umh / subme=8 / psy=1 / psy_rd=1.00:0.15 / mixed_ref=1 / me_range=16 / chroma_me=1 / trellis=1 / 8x8dct=0 / cqm=0 / deadzone=21,11 / fast_pskip=1 / chroma_qp_offset=-3 / threads=2 / lookahead_threads=1 / sliced_threads=0 / nr=0 / decimate=1 / interlaced=0 / bluray_compat=0 / constrained_intra=0 / bframes=3 / b_pyramid=2 / b_adapt=2 / b_bias=0 / direct=3 / weightb=1 / open_gop=0 / weightp=0 / keyint=250 / keyint_min=25 / scenecut=40 / intra_refresh=0 / rc_lookahead=50 / rc=crf / mbtree=1 / crf=17.0 / qcomp=0.60 / qpmin=0 / qpmax=69 / qpstep=4 / ip_ratio=1.40 / aq=1:1.00\r\nLanguage : English\r\n\r\nAudio\r\nID : 2\r\nFormat : AAC\r\nFormat/Info : Advanced Audio Codec\r\nFormat profile : LC\r\nCodec ID : 40\r\nDuration : 7mn 34s\r\nDuration_LastFrame : -2ms\r\nBit rate mode : Variable\r\nBit rate : 115 Kbps\r\nMaximum bit rate : 196 Kbps\r\nChannel(s) : 2 channels\r\nChannel positions : Front: L R\r\nSampling rate : 44.1 KHz\r\nCompression mode : Lossy\r\nStream size : 6.24 MiB (3%)\r\nLanguage : English\r\n\r\n