Whitney Conroy & Alexis Crystal – Sheets In The Wind

Lіоnа & Сhаrlіzе Веllа - Forest FunBrandi Melanie Melody - Real Amateur Girls

Posted in HD Porn, Lesbian, Pornstar, Sex Movies, Teen | 9868 Views |


Rate this girl !!!




Whitney Conroy & Alexis Crystal Sheets In The Wind\r\nWebYoung.com 2013 Lesbians Oral Sex Close Ups Breasts Shaved\r\n\r\nWhitney Conroy & Alexis Crystal – Sheets In The Wind\r\n\r\nWhitney Conroy & Alexis Crystal – Sheets In The Wind\r\n\r\nWhitney Conroy & Alexis Crystal – Sheets In The Wind\r\n\r\n\r\nWhitney Conroy & Alexis Crystal – Sheets In The Wind\r\n\r\n\r\nFile: Whitney Conroy & Alexis Crystal – Sheets In The Wind.mp4\r\nSize: 1098819563 bytes (1.02 GiB), duration: 00:21:23, avg.bitrate: 6852 kb/s\r\nAudio: aac, 44100 Hz, 2 channels, s16, 118 kb/s (eng)\r\nVideo: h264, yuv420p, 1920×1080, 6724 kb/s, 29.97 fps(r) (eng)\r\n



DOWNLOAD

Keep2share.cc - Uploaded.net - Openload.co - Rapidu.net


http://ryushare.com/238fad9d606d/Wh.C0.Al3.Crys.Sh33.W1nd.part1.rar
http://ryushare.com/22a6d8f84fea/Wh.C0.Al3.Crys.Sh33.W1nd.part2.rar
http://turbobit.net/wjb5zgsa1xox.html
http://turbobit.net/22mxs92rdzss.html
http://ul.to/zah5olwp
http://ul.to/3hxk1iun
http://keep2share.cc/file/527ba022f179f
http://keep2share.cc/file/527ba2066a092


Premium here:
uploaded.net
keep2share.cc
rapidu.net.cc

Teens related to Whitney Conroy & Alexis Crystal – Sheets In The Wind


Movies Young legal porn 5205 ryushare uploaded keep2share

Movies Young legal porn 5205

Teen porn xxx 224307 ryushare uploaded keep2share

Teen porn xxx 224307

Www gri xxx com 226361 ryushare uploaded keep2share

Www gri xxx com 226361

Wow girls porn teens 2761 ryushare uploaded keep2share

Wow girls porn teens 2761

Hot Teen Sex HD videos 1371 ryushare uploaded keep2share

Hot Teen Sex HD videos 1371

sexy video9 hd xxx in 226643 ryushare uploaded keep2share

sexy video9 hd xxx in 226643

Girls do porn in HD 224981 ryushare uploaded keep2share

Girls do porn in HD 224981

Marry – Time To Myself – Nubiles ryushare uploaded keep2share

Marry – Time To Myself – Nubiles

Teen Porn XXX Tube 224445 ryushare uploaded keep2share

Teen Porn XXX Tube 224445

Free Porn Videos Xxx Movies Pussy Porn 1549 ryushare uploaded keep2share

Free Porn Videos Xxx Movies Pussy Porn 1549

Watch Teen Sex Videos HD 2205 ryushare uploaded keep2share

Watch Teen Sex Videos HD 2205

Uliya – Special surprise for a sex date ryushare uploaded keep2share

Uliya – Special surprise for a sex date

Kiara Lord, Vanda Lust – Walk on the wild side ryushare uploaded keep2share

Kiara Lord, Vanda Lust – Walk on the wild side

Porn party teen girls 225425 ryushare uploaded keep2share

Porn party teen girls 225425

Wow Girls Porn Clips download 5142 ryushare uploaded keep2share

Wow Girls Porn Clips download 5142

Free Porn Videos Xxx Movies Pussy Porn 224680 ryushare uploaded keep2share

Free Porn Videos Xxx Movies Pussy Porn 224680

FantasyHD.com – Emily Grey – Teen Thigh Gap ryushare uploaded keep2share

FantasyHD.com – Emily Grey – Teen Thigh Gap

sex xxx bf england ryushare uploaded keep2share

sex xxx bf england

Teens sex mania 225041 ryushare uploaded keep2share

Teens sex mania 225041

Sexy hd world com 226166 ryushare uploaded keep2share

Sexy hd world com 226166

Teen xxx sex hd 5239 ryushare uploaded keep2share

Teen xxx sex hd 5239

Free Young Porn Videos XXX Teen Porn 2569 ryushare uploaded keep2share

Free Young Porn Videos XXX Teen Porn 2569

8 Teen XXX – Teen Sex 224358 ryushare uploaded keep2share

8 Teen XXX – Teen Sex 224358

Teens sex mania 223786 ryushare uploaded keep2share

Teens sex mania 223786

Sandy Sweet & Jessica Valentino ryushare uploaded keep2share

Sandy Sweet & Jessica Valentino

Teen xxx sex hd 225384 ryushare uploaded keep2share

Teen xxx sex hd 225384

HD Teens Sex Tube Videos XxX 5400 ryushare uploaded keep2share

HD Teens Sex Tube Videos XxX 5400

College Teen Sex 224503 ryushare uploaded keep2share

College Teen Sex 224503

xxx hd com yang ryushare uploaded keep2share

xxx hd com yang

Porno movies young teens lesbian 224977 ryushare uploaded keep2share

Porno movies young teens lesbian 224977

Free Teen Porn Videos at Teen Sex Tube XXX 3477 ryushare uploaded keep2share

Free Teen Porn Videos at Teen Sex Tube XXX 3477

High Definition Movies on HD 3998 ryushare uploaded keep2share

High Definition Movies on HD 3998

Hot amateur ryushare uploaded keep2share

Hot amateur

Teen Sex Videos Tube Movies 225164 ryushare uploaded keep2share

Teen Sex Videos Tube Movies 225164

Girls sex art hd teens videos 5327 ryushare uploaded keep2share

Girls sex art hd teens videos 5327

Report broken links / Post a comment

You must be logged in to post a comment.



General\r\nComplete name : H:HD TEENS PORN/DOWNLOAD/RYUSHARE/UPLOADED/KEEP2SHARE/TURBOBIT/\r\nWhitney Conroy & Alexis Crystal - Sheets In The Wind.mp4\r\nFormat : MPEG-4\r\nFormat profile : Base Media\r\nCodec ID : isom\r\nFile size : 1.02 GiB\r\nDuration : 21mn 23s\r\nOverall bit rate mode : Variable\r\nOverall bit rate : 6 850 Kbps\r\nWriting application : Lavf52.93.0\r\n\r\nVideo\r\nID : 1\r\nFormat : AVC\r\nFormat/Info : Advanced Video Codec\r\nFormat profile : [email protected]\r\nFormat settings, CABAC : Yes\r\nFormat settings, ReFrames : 4 frames\r\nCodec ID : avc1\r\nCodec ID/Info : Advanced Video Coding\r\nDuration : 21mn 23s\r\nBit rate : 6 800 Kbps\r\nWidth : 1 920 pixels\r\nHeight : 1 080 pixels\r\nDisplay aspect ratio : 16:9\r\nFrame rate mode : Constant\r\nFrame rate : 29.970 fps\r\nColor space : YUV\r\nChroma subsampling : 4:2:0\r\nBit depth : 8 bits\r\nScan type : Progressive\r\nBits/(Pixel*Frame) : 0.109\r\nStream size : 1.00 GiB (98%)\r\nWriting library : x264 core 107\r\nEncoding settings : cabac=1 / ref=3 / deblock=1:0:0 / analyse=0x3:0x113 / me=umh / subme=6 / psy=1 / psy_rd=1.00:0.00 / mixed_ref=1 / me_range=16 / chroma_me=1 / trellis=0 / 8x8dct=1 / cqm=0 / deadzone=21,11 / fast_pskip=1 / chroma_qp_offset=-2 / threads=1 / sliced_threads=0 / nr=0 / decimate=1 / interlaced=0 / constrained_intra=0 / bframes=2 / b_pyramid=2 / b_adapt=2 / b_bias=0 / direct=2 / weightb=1 / open_gop=0 / weightp=0 / keyint=30 / keyint_min=16 / scenecut=0 / intra_refresh=0 / rc_lookahead=30 / rc=abr / mbtree=1 / bitrate=6800 / ratetol=1.0 / qcomp=0.60 / qpmin=1 / qpmax=31 / qpstep=4 / ip_ratio=1.41 / aq=1:1.00\r\nLanguage : English\r\n\r\nAudio\r\nID : 2\r\nFormat : AAC\r\nFormat/Info : Advanced Audio Codec\r\nFormat profile : LC\r\nCodec ID : 40\r\nDuration : 21mn 23s\r\nBit rate mode : Variable\r\nBit rate : 118 Kbps\r\nChannel(s) : 2 channels\r\nChannel positions : Front: L R\r\nSampling rate : 44.1 KHz\r\nCompression mode : Lossy\r\nDelay relative to video : 67ms\r\nStream size : 18.1 MiB (2%)\r\nLanguage : English\r\n\r\n