Veronika – Awesome sex with hot teeny

Taissia Shanti – Hot and SteamySilvie Luca – Give And Take

Posted in Amateur, HD Porn, Sex Movies, Teen | 10446 Views |


Rate this girl !!!




[CasualTeenSex.com] Veronika – Awesome sex with hot teeny

\r\n

cover

\r\n

1920x1080p / MP4 / 1.1 GB

\r\n

SCREENSHOTS:

\r\n

screens

\r\n



DOWNLOAD

Keep2share.cc - Uploaded.net - Openload.co - Rapidu.net


http://fileom.com/fpifd9b3ewqf/4ccts006_4w3s0m3_s3x_w1th_h0t_t33ny.mp4.html
http://ul.to/mnhgjj8d/4ccts006_4w3s0m3_s3x_w1th_h0t_t33ny.mp4
http://k2s.cc/file/bf1d462bf3f62/4ccts006_4w3s0m3_s3x_w1th_h0t_t33ny.mp4


Premium here:
uploaded.net
keep2share.cc
rapidu.net.cc


Teens related to Veronika – Awesome sex with hot teeny


www xxxsex vebios com ryushare uploaded keep2share

www xxxsex vebios com

www HD fuck vido 226084 ryushare uploaded keep2share

www HD fuck vido 226084

Teenage Fuck Clips 2806 ryushare uploaded keep2share

Teenage Fuck Clips 2806

Nubilefilms.com Elena Rae – Russian Beauty ryushare uploaded keep2share

Nubilefilms.com Elena Rae – Russian Beauty

download hd sex vids for pc 226447 ryushare uploaded keep2share

download hd sex vids for pc 226447

The best Teen sex 5166 ryushare uploaded keep2share

The best Teen sex 5166

Hd video download porn china 226385 ryushare uploaded keep2share

Hd video download porn china 226385

Beautiful small tits blonde ryushare uploaded keep2share

Beautiful small tits blonde

Eva Karera, Jasmine Gomez, TeachSex ryushare uploaded keep2share

Eva Karera, Jasmine Gomez, TeachSex

Hardcore Sex Hub 4176 ryushare uploaded keep2share

Hardcore Sex Hub 4176

Kiara Lord – Window ryushare uploaded keep2share

Kiara Lord – Window

Girls do porn in HD 225281 ryushare uploaded keep2share

Girls do porn in HD 225281

Teens sex mania 225041 ryushare uploaded keep2share

Teens sex mania 225041

Anal with beautiful teen ryushare uploaded keep2share

Anal with beautiful teen

teen 12 porn images 226585 ryushare uploaded keep2share

teen 12 porn images 226585

HD Porn Video 1358 ryushare uploaded keep2share

HD Porn Video 1358

Wow girls hd porn teens 5537 ryushare uploaded keep2share

Wow girls hd porn teens 5537

nxxx free hd videos dwondlod s ryushare uploaded keep2share

nxxx free hd videos dwondlod s

Masha – Fucking like elite whore ryushare uploaded keep2share

Masha – Fucking like elite whore

Bella Baby  Simon – Sweet Escape For Young Lovers ryushare uploaded keep2share

Bella Baby Simon – Sweet Escape For Young Lovers

High Definition Movies on HD Teen Porn XXX Tube 1493 ryushare uploaded keep2share

High Definition Movies on HD Teen Porn XXX Tube 1493

NubilesPorn.com Jessie Volt – Juste Toi Et Moi ryushare uploaded keep2share

NubilesPorn.com Jessie Volt – Juste Toi Et Moi

Close Ups, Blowjob, Shaved, Creampie, Stockings, 1080p ryushare uploaded keep2share

Close Ups, Blowjob, Shaved, Creampie, Stockings, 1080p

[PublicAgent.com] Cindy Loarn – Bubble Butt Babe Fucked in a Car ryushare uploaded keep2share

[PublicAgent.com] Cindy Loarn – Bubble Butt Babe Fucked in a Car

Hot download sex girls movies 225718 ryushare uploaded keep2share

Hot download sex girls movies 225718

Amarna Miller & Juan Lucho – Que Es La Pasion ryushare uploaded keep2share

Amarna Miller & Juan Lucho – Que Es La Pasion

Young XXX Tube Videos 2002 ryushare uploaded keep2share

Young XXX Tube Videos 2002

Wow porn hd downloads 224319 ryushare uploaded keep2share

Wow porn hd downloads 224319

College Teen Sex 3556 ryushare uploaded keep2share

College Teen Sex 3556

Porn HQ Movei free downlode ryushare uploaded keep2share

Porn HQ Movei free downlode

Brunette bonk ryushare uploaded keep2share

Brunette bonk

Amateur Teen Sex 5266 ryushare uploaded keep2share

Amateur Teen Sex 5266

free heigh definition porn movies download 226263 ryushare uploaded keep2share

free heigh definition porn movies download 226263

Teen Sex Movies 223950 ryushare uploaded keep2share

Teen Sex Movies 223950

HD sex movies downloads 2769 ryushare uploaded keep2share

HD sex movies downloads 2769

Report broken links / Post a comment

You must be logged in to post a comment.



General\r\nComplete name : D:[CasualTeenSex.com] Veronika – Awesome sex with hot teeny.mp4\r\nFormat : MPEG-4\r\nFormat profile : Base Media\r\nCodec ID : isom\r\nFile size : 1.10 GiB\r\nDuration : 23mn 17s\r\nOverall bit rate : 6 747 Kbps\r\nWriting application : Lavf54.22.101\r\n\r\nVideo\r\nID : 1\r\nFormat : AVC\r\nFormat/Info : Advanced Video Codec\r\nFormat profile : [email protected]\r\nFormat settings, CABAC : Yes\r\nFormat settings, ReFrames : 4 frames\r\nCodec ID : avc1\r\nCodec ID/Info : Advanced Video Coding\r\nDuration : 23mn 17s\r\nBit rate : 6 613 Kbps\r\nWidth : 1 920 pixels\r\nHeight : 1 080 pixels\r\nDisplay aspect ratio : 16:9\r\nFrame rate mode : Constant\r\nFrame rate : 25.000 fps\r\nColor space : YUV\r\nChroma subsampling : 4:2:0\r\nBit depth : 8 bits\r\nScan type : Progressive\r\nBits/(Pixel*Frame) : 0.128\r\nStream size : 1.08 GiB (98%)\r\nWriting library : x264 core 125\r\nEncoding settings : cabac=1 / ref=3 / deblock=1:0:0 / analyse=0x3:0x113 / me=hex / subme=7 / psy=1 / psy_rd=1.00:0.00 / mixed_ref=1 / me_range=16 / chroma_me=1 / trellis=0 / 8x8dct=1 / cqm=0 / deadzone=21,11 / fast_pskip=1 / chroma_qp_offset=-2 / threads=16 / lookahead_threads=2 / sliced_threads=0 / nr=0 / decimate=1 / interlaced=0 / bluray_compat=0 / constrained_intra=0 / bframes=8 / b_pyramid=2 / b_adapt=1 / b_bias=0 / direct=1 / weightb=1 / open_gop=0 / weightp=2 / keyint=50 / keyint_min=5 / scenecut=40 / intra_refresh=0 / rc_lookahead=40 / rc=crf / mbtree=1 / crf=20.0 / qcomp=0.60 / qpmin=0 / qpmax=69 / qpstep=4 / ip_ratio=1.40 / aq=1:1.00\r\n\r\nAudio\r\nID : 2\r\nFormat : AAC\r\nFormat/Info : Advanced Audio Codec\r\nFormat profile : LC\r\nCodec ID : 40\r\nDuration : 23mn 17s\r\nBit rate mode : Constant\r\nBit rate : 128 Kbps\r\nChannel(s) : 2 channels\r\nChannel positions : Front: L R\r\nSampling rate : 44.1 KHz\r\nCompression mode : Lossy\r\nStream size : 21.3 MiB (2%)\r\n\r\n