Veiki & Liona – Two Is Better Then One

Remy's Edging Orgasm ControlTeen Tits Tube, Young Girls Porn Videos 6209

Posted in HD Porn, Pornstar, Sex Movies, Teen, Threesome | 7944 Views |


Rate this girl !!!




cover\r\n\r\n1920x1080p / MP4 / 1.3 GB\r\n

[EuroTeenErotica.com] Veiki & Liona – Two Is Better Then One

\r\nSCREENSHOTS:\r\n\r\nscreens



DOWNLOAD

Keep2share.cc - Uploaded.net - Openload.co - Rapidu.net


http://k2s.cc/file/e8b4f1cdaea5a/V31k1_4nd_L1on4.mp4
http://ul.to/bs0b15q8/V31k1%204nd%20L1on4.mp4


Premium here:
uploaded.net
keep2share.cc
rapidu.net.cc


Teens related to Veiki & Liona – Two Is Better Then One


1280HD Xxx com ryushare uploaded keep2share

1280HD Xxx com

Young Sex Movies 5605 ryushare uploaded keep2share

Young Sex Movies 5605

21Naturals.com Alysa Gap ryushare uploaded keep2share

21Naturals.com Alysa Gap

hq hd pron pussy free downlode 226077 ryushare uploaded keep2share

hq hd pron pussy free downlode 226077

www sexxxxxx cm ryushare uploaded keep2share

www sexxxxxx cm

[FTVGirls.com] 2016-10-07 – Eva & Violet Starr – College Girls In Love [Lesbo, Toys, Fisting, 1080p] ryushare uploaded keep2share

[FTVGirls.com] 2016-10-07 – Eva & Violet Starr – College Girls In Love [Lesbo, Toys, Fisting, 1080p]

bf 1080p xxxx sex xxx hd bf 226698 ryushare uploaded keep2share

bf 1080p xxxx sex xxx hd bf 226698

WowGirls.com Nomi – An Expert At Work ryushare uploaded keep2share

WowGirls.com Nomi – An Expert At Work

Katy Rose & Lutro – Lubricous ryushare uploaded keep2share

Katy Rose & Lutro – Lubricous

Teen Sex Movies Young Porn Tube Vids 5179 ryushare uploaded keep2share

Teen Sex Movies Young Porn Tube Vids 5179

Nude Teens fucking hard 5262 ryushare uploaded keep2share

Nude Teens fucking hard 5262

HD sex movies downloads 2769 ryushare uploaded keep2share

HD sex movies downloads 2769

Free Teen Porn Videos at Teen Sex Tube XXX 225611 ryushare uploaded keep2share

Free Teen Porn Videos at Teen Sex Tube XXX 225611

Fresh Teen Videos 4156 ryushare uploaded keep2share

Fresh Teen Videos 4156

Teen xxx sex hd 223813 ryushare uploaded keep2share

Teen xxx sex hd 223813

First time Sexual Films 18 sex xxx 4745 ryushare uploaded keep2share

First time Sexual Films 18 sex xxx 4745

Chelsea – First & Forever ryushare uploaded keep2share

Chelsea – First & Forever

Susan Ayn ryushare uploaded keep2share

Susan Ayn

www yes video xxx com 226468 ryushare uploaded keep2share

www yes video xxx com 226468

Girls do porn in HD 224304 ryushare uploaded keep2share

Girls do porn in HD 224304

Teens in Porno young porn videos and free teen sex 2151 ryushare uploaded keep2share

Teens in Porno young porn videos and free teen sex 2151

Wow Porn Teen Movies HD ryushare uploaded keep2share

Wow Porn Teen Movies HD

nude hot 226040 ryushare uploaded keep2share

nude hot 226040

Wow porn hd downloads 225831 ryushare uploaded keep2share

Wow porn hd downloads 225831

Uploaded net porn 3760 ryushare uploaded keep2share

Uploaded net porn 3760

Jungal PornStars Sex 226234 ryushare uploaded keep2share

Jungal PornStars Sex 226234

Lucy Li & William Zeff – With Love ryushare uploaded keep2share

Lucy Li & William Zeff – With Love

ClubSeventeen.com SiteRip – Part 3 ryushare uploaded keep2share

ClubSeventeen.com SiteRip – Part 3

HD Teen Sex Tube 224831 ryushare uploaded keep2share

HD Teen Sex Tube 224831

Fresh Teen Videos 1868 ryushare uploaded keep2share

Fresh Teen Videos 1868

Girls sex art hd teens videos 225240 ryushare uploaded keep2share

Girls sex art hd teens videos 225240

Wow Porn Movies download) 225050 ryushare uploaded keep2share

Wow Porn Movies download) 225050

Young Virgin Pussy Teen Fuck Tube 4366 ryushare uploaded keep2share

Young Virgin Pussy Teen Fuck Tube 4366

edge orgasm ryushare uploaded keep2share

edge orgasm

Report broken links / Post a comment

You must be logged in to post a comment.



General\r\nComplete name : D:hd teens porn download free online[EuroTeenErotica.com] Veiki & Liona – Two Is Better Then One.mp4\r\nFormat : MPEG-4\r\nFormat profile : Base Media\r\nCodec ID : isom\r\nFile size : 1.30 GiB\r\nDuration : 22mn 43s\r\nOverall bit rate mode : Variable\r\nOverall bit rate : 8 202 Kbps\r\nMovie name : RARBG.COM - EuroTeenErotica.14.09.25.Veiki.And.Liona.XXX.1080p.MP4-KTR\r\nWriting application : Lavf55.48.100\r\nComment : RARBG.COM - EuroTeenErotica.14.09.25.Veiki.And.Liona.XXX.1080p.MP4-KTR\r\n\r\nVideo\r\nID : 1\r\nFormat : AVC\r\nFormat/Info : Advanced Video Codec\r\nFormat profile : [email protected]\r\nFormat settings, CABAC : Yes\r\nFormat settings, ReFrames : 3 frames\r\nFormat settings, GOP : M=3, N=29\r\nCodec ID : avc1\r\nCodec ID/Info : Advanced Video Coding\r\nDuration : 22mn 42s\r\nBit rate mode : Variable\r\nBit rate : 8 000 Kbps\r\nWidth : 1 920 pixels\r\nHeight : 1 080 pixels\r\nDisplay aspect ratio : 16:9\r\nFrame rate mode : Constant\r\nFrame rate : 29.970 fps\r\nStandard : NTSC\r\nColor space : YUV\r\nChroma subsampling : 4:2:0\r\nBit depth : 8 bits\r\nScan type : Progressive\r\nBits/(Pixel*Frame) : 0.129\r\nStream size : 1.27 GiB (98%)\r\nLanguage : English\r\nColor primaries : BT.709\r\nTransfer characteristics : BT.709\r\nMatrix coefficients : BT.709\r\n\r\nAudio\r\nID : 2\r\nFormat : AAC\r\nFormat/Info : Advanced Audio Codec\r\nFormat profile : LC\r\nCodec ID : 40\r\nDuration : 22mn 43s\r\nBit rate mode : Constant\r\nBit rate : 192 Kbps\r\nChannel(s) : 2 channels\r\nChannel positions : Front: L R\r\nSampling rate : 48.0 KHz\r\nCompression mode : Lossy\r\nStream size : 30.8 MiB (2%)\r\nLanguage : English\r\n\r\n