Uploaded net porn 3760

Young 720p hd porn 3776Hd young videos 3757

Posted in HD Porn, Pornstar, Sex Movies, Teen | 9044 Views |


Rate this girl !!!




cover\r\n\r\nscreens



DOWNLOAD

Keep2share.cc - Uploaded.net - Openload.co - Rapidu.net


http://fileom.com/kahfpg743tg2/Ez.ma.wmv.html
http://ul.to/rpfk0h64/Ez.ma.wmv
http://ryushare.com/0ywvdzgjildb/Ez.ma.wmv
http://k2s.cc/file/c3e5c55f200ba/Ez.ma.wmv


Premium here:
uploaded.net
keep2share.cc
rapidu.net.cc


Teens related to Uploaded net porn 3760


Teen Sex Movies Young Porn Tube Vids 225963 ryushare uploaded keep2share

Teen Sex Movies Young Porn Tube Vids 225963

Sex in the morning ryushare uploaded keep2share

Sex in the morning

HQ Sex Movies Download 3507 ryushare uploaded keep2share

HQ Sex Movies Download 3507

Nude Teens fucking hard 2189 ryushare uploaded keep2share

Nude Teens fucking hard 2189

18OnlyGirls Nikita (Gina Devine) Here I Cum! ryushare uploaded keep2share

18OnlyGirls Nikita (Gina Devine) Here I Cum!

HD Sex World Videos High Definition Free Porn 225696 ryushare uploaded keep2share

HD Sex World Videos High Definition Free Porn 225696

Hot download sex girls movies 225422 ryushare uploaded keep2share

Hot download sex girls movies 225422

Uploaded net porn XXX 225809 ryushare uploaded keep2share

Uploaded net porn XXX 225809

Brazzers Video Xxx Hd Hq Com 226480 ryushare uploaded keep2share

Brazzers Video Xxx Hd Hq Com 226480

Adult Hardcore XXX Sex Videos 3788 ryushare uploaded keep2share

Adult Hardcore XXX Sex Videos 3788

Young Sex Movies 224073 ryushare uploaded keep2share

Young Sex Movies 224073

Free Young Porn Videos XXX Teen Porn 5149 ryushare uploaded keep2share

Free Young Porn Videos XXX Teen Porn 5149

www sex all world hd com 226654 ryushare uploaded keep2share

www sex all world hd com 226654

XXX young porn sex 3489 ryushare uploaded keep2share

XXX young porn sex 3489

www fist timrs sex x videos com 226534 ryushare uploaded keep2share

www fist timrs sex x videos com 226534

HD Porn Teen Sex Videos 3944 ryushare uploaded keep2share

HD Porn Teen Sex Videos 3944

Young Sex Movies 5419 ryushare uploaded keep2share

Young Sex Movies 5419

My bigtits girlfriend fornication – in the sack ryushare uploaded keep2share

My bigtits girlfriend fornication – in the sack

First time Sexual Films 18 sex xxx 3226 ryushare uploaded keep2share

First time Sexual Films 18 sex xxx 3226

HD Porn Teen Sex Videos 2182 ryushare uploaded keep2share

HD Porn Teen Sex Videos 2182

Teen Porn XXX Tube 224445 ryushare uploaded keep2share

Teen Porn XXX Tube 224445

Kiara Lord – Window ryushare uploaded keep2share

Kiara Lord – Window

Lucy Li & William Zeff – With Love ryushare uploaded keep2share

Lucy Li & William Zeff – With Love

Hd blonde bang 226409 ryushare uploaded keep2share

Hd blonde bang 226409

Teenies Videos – Teen Porn, Teen Sex, XXX Free Videos 225560 ryushare uploaded keep2share

Teenies Videos – Teen Porn, Teen Sex, XXX Free Videos 225560

Young XXX Tube Videos 224031 ryushare uploaded keep2share

Young XXX Tube Videos 224031

Julie Vee ryushare uploaded keep2share

Julie Vee

www youngxxx videos com 226140 ryushare uploaded keep2share

www youngxxx videos com 226140

K Craving Lips 4 – CLIP A ryushare uploaded keep2share

K Craving Lips 4 – CLIP A

free hd mp4 vergin porn vedios ryushare uploaded keep2share

free hd mp4 vergin porn vedios

Teen porn movies 2225 ryushare uploaded keep2share

Teen porn movies 2225

Wow Porn Teen Movies HD ryushare uploaded keep2share

Wow Porn Teen Movies HD

8 Teen XXX – Teen Sex 1751 ryushare uploaded keep2share

8 Teen XXX – Teen Sex 1751

Porn HD Sex HD Teen Sex 224824 ryushare uploaded keep2share

Porn HD Sex HD Teen Sex 224824

HD Teen Sex Tube 1346 ryushare uploaded keep2share

HD Teen Sex Tube 1346

Report broken links / Post a comment

You must be logged in to post a comment.



General\r\nComplete name : D:hd pornstars teens ryushare.com uploaded.net keep2share.cc fileom.com streamcloud.eu allmyvideos.net ul.to download porn movies clips beata undineEz.ma.wmv\r\nFormat : Windows Media\r\nFile size : 571 MiB\r\nDuration : 15mn 22s\r\nOverall bit rate : 5 195 Kbps\r\nMaximum Overall bit rate : 5 151 Kbps\r\nEncoded date : UTC 2011-10-22 20:48:00.000\r\n\r\nVideo\r\nID : 1\r\nFormat : VC-1\r\nFormat profile : Main\r\nCodec ID : WMV3\r\nCodec ID/Info : Windows Media Video 9\r\nCodec ID/Hint : WMV3\r\nDescription of the codec : Windows Media Video 368635704 - 2-pass VBR\r\nDuration : 15mn 22s\r\nBit rate : 5 000 Kbps\r\nWidth : 1 280 pixels\r\nHeight : 720 pixels\r\nDisplay aspect ratio : 16:9\r\nFrame rate : 25.000 fps\r\nColor space : YUV\r\nChroma subsampling : 4:2:0\r\nBit depth : 8 bits\r\nScan type : Progressive\r\nCompression mode : Lossy\r\nBits/(Pixel*Frame) : 0.217\r\nStream size : 550 MiB (96%)\r\n\r\nAudio\r\nID : 2\r\nFormat : WMA\r\nFormat version : Version 2\r\nCodec ID : 161\r\nCodec ID/Info : Windows Media Audio\r\nDescription of the codec : Windows Media Audio 9 - 368635704 kbps, 368635704 kHz, stereo CBR\r\nDuration : 15mn 22s\r\nBit rate : 128 Kbps\r\nChannel(s) : 2 channels\r\nSampling rate : 44.1 KHz\r\nBit depth : 16 bits\r\nStream size : 14.1 MiB (2%)\r\n\r\nhd pornstars teens ryushare.com uploaded.net keep2share.cc fileom.com streamcloud.eu allmyvideos.net ul.to download porn movies clips beata undine