Two Teasing Tongues 10 – A

Jessie Volt, Aysha Rouge (K Two Teasing Tongues 13) ABTwo Teasing Tongues 10 - B

Posted in HD Porn, Pornstar, Sex Movies, Teen, Threesome | 15281 Views |


Rate this girl !!!




pic\r\n

[K Klixen Productions / clips4sale.com] Cipriana and Jessyka (Two Teasing Tongues 10) [2014 г., Blowjob] A

\r\nTwo Teasing Tongues 10 -A\r\npicImya actress: Cipriana and Jessyka\r\nName movie: Two Teasing Tongues 10\r\nSubsite and site: K Klixen Productions / clips4sale.com\r\nProduction year: 2014\r\nCategory: Blowjob\r\nDuration: 00:48:40\r\nDescription: Cipriana and Jessyka POV oral scene\r\nVideo Format: MP4\r\nVideo codec: H.264 / AVC\r\nAudio codec: AAC\r\nVideo: MPEG4 Video (H264) 852×480 29.97fps 2018kbps\r\nAudio: AAC 44100Hz stereo 95kbps\r\n\r\npic



DOWNLOAD

Keep2share.cc - Uploaded.net - Openload.co - Rapidu.net



http://k2s.cc/file/9e02e9af7275d/Cl1ps.4.S4l3.C1pr14n4%2C.J3ssyk4.Two.T34s1ng.Tongu3s.10.P4rt.4.mp4

http://ul.to/qqamm3vd/Cl1ps.4.S4l3.C1pr14n4,.J3ssyk4.Two.T34s1ng.Tongu3s.10.P4rt.4.mp4


Premium here:
uploaded.net
keep2share.cc
rapidu.net.cc


Teens related to Two Teasing Tongues 10 – A


Teen porn movies 1460 ryushare uploaded keep2share

Teen porn movies 1460

Japanese Young teen Amateur ryushare uploaded keep2share

Japanese Young teen Amateur

TrickyMasseur.com Isabeli ryushare uploaded keep2share

TrickyMasseur.com Isabeli

Nude Teens fucking hard 5075 ryushare uploaded keep2share

Nude Teens fucking hard 5075

Teena Dolly ryushare uploaded keep2share

Teena Dolly

Hot Teen Sex HD videos 3863 ryushare uploaded keep2share

Hot Teen Sex HD videos 3863

Free Young Porn Videos XXX Teen Porn 225794 ryushare uploaded keep2share

Free Young Porn Videos XXX Teen Porn 225794

NubileFilms.com Taylor Whyte – Finally Home ryushare uploaded keep2share

NubileFilms.com Taylor Whyte – Finally Home

A girl with heavenly curves ryushare uploaded keep2share

A girl with heavenly curves

www 000-sexmovies 226286 ryushare uploaded keep2share

www 000-sexmovies 226286

sex hd gir down video com ryushare uploaded keep2share

sex hd gir down video com

Hardcore Sex Hub 225296 ryushare uploaded keep2share

Hardcore Sex Hub 225296

1By-Day.com / DDFNetwork.com] Valentina Ricci – Sudsy Snatch – Belgian Beauty Masturbates in the Tub (01.12.2016 г.) [Bath, Bathroom, Brunette, Enhanced Tits, Fingering, High Heels, Lingerie, Piercing, Trimmed Pussy, Solo, Medium Tits, 1080p] ryushare uploaded keep2share

1By-Day.com / DDFNetwork.com] Valentina Ricci – Sudsy Snatch – Belgian Beauty Masturbates in the Tub (01.12.2016 г.) [Bath, Bathroom, Brunette, Enhanced Tits, Fingering, High Heels, Lingerie, Piercing, Trimmed Pussy, Solo, Medium Tits, 1080p]

Hardcore Sex Hub 223889 ryushare uploaded keep2share

Hardcore Sex Hub 223889

Teen Sex Movies Young Porn Tube Vids 224610 ryushare uploaded keep2share

Teen Sex Movies Young Porn Tube Vids 224610

Wow porn tube movies 4428 ryushare uploaded keep2share

Wow porn tube movies 4428

High Definition Movies on HD 1894 ryushare uploaded keep2share

High Definition Movies on HD 1894

Teen xxx sex hd 225800 ryushare uploaded keep2share

Teen xxx sex hd 225800

Teen sex xxx hd 4852 ryushare uploaded keep2share

Teen sex xxx hd 4852

real virgin Teent pussy image Hd com ryushare uploaded keep2share

real virgin Teent pussy image Hd com

Teen sex xxx hd 2606 ryushare uploaded keep2share

Teen sex xxx hd 2606

Girls sex art hd teens videos 224203 ryushare uploaded keep2share

Girls sex art hd teens videos 224203

Summer Breeze and Victoria Tiffani ryushare uploaded keep2share

Summer Breeze and Victoria Tiffani

Hardcore Sex Hub 225938 ryushare uploaded keep2share

Hardcore Sex Hub 225938

Lucy Li – 18OnlyGirls ryushare uploaded keep2share

Lucy Li – 18OnlyGirls

Wow Girls Porn Clips download 5439 ryushare uploaded keep2share

Wow Girls Porn Clips download 5439

Porn HD Sex HD Teen Sex 224548 ryushare uploaded keep2share

Porn HD Sex HD Teen Sex 224548

Movies Young legal porn 224165 ryushare uploaded keep2share

Movies Young legal porn 224165

www yes xxx hd downlads 226589 ryushare uploaded keep2share

www yes xxx hd downlads 226589

X-Angels Licie ryushare uploaded keep2share

X-Angels Licie

Wow girls hd porn teens 225278 ryushare uploaded keep2share

Wow girls hd porn teens 225278

HD porn uploaded 2790 ryushare uploaded keep2share

HD porn uploaded 2790

Jasmine Caro – All day long ryushare uploaded keep2share

Jasmine Caro – All day long

Teens Love huge cooks 1166 ryushare uploaded keep2share

Teens Love huge cooks 1166

Young xxx 225572 ryushare uploaded keep2share

Young xxx 225572

Report broken links / Post a comment

You must be logged in to post a comment.



General\r\nComplete name : D:hd teens porn download free online[K Klixen Productions / clips4sale.com] Cipriana and Jessyka (Two Teasing Tongues 10) [2014 г., Blowjob] A.PArt.A.mp4\r\nFormat : MPEG-4\r\nCodec ID : M4V \r\nFile size : 560 MiB\r\nDuration : 36mn 56s\r\nOverall bit rate mode : Variable\r\nOverall bit rate : 2 119 Kbps\r\nEncoded date : UTC 1970-01-01 00:00:00\r\nTagged date : UTC 1970-01-01 00:00:00\r\n\r\nVideo\r\nID : 1\r\nFormat : AVC\r\nFormat/Info : Advanced Video Codec\r\nFormat profile : [email protected]\r\nFormat settings, CABAC : No\r\nFormat settings, ReFrames : 1 frame\r\nFormat settings, GOP : M=1, N=12\r\nCodec ID : avc1\r\nCodec ID/Info : Advanced Video Coding\r\nDuration : 36mn 56s\r\nBit rate : 2 000 Kbps\r\nWidth : 852 pixels\r\nHeight : 480 pixels\r\nDisplay aspect ratio : 16:9\r\nFrame rate mode : Constant\r\nFrame rate : 29.970 fps\r\nColor space : YUV\r\nChroma subsampling : 4:2:0\r\nBit depth : 8 bits\r\nScan type : Progressive\r\nBits/(Pixel*Frame) : 0.163\r\nStream size : 534 MiB (95%)\r\nWriting library : x264 core 77\r\nEncoding settings : cabac=0 / ref=1 / deblock=0:0:0 / analyse=0x1:0 / me=dia / subme=8 / psy=1 / psy_rd=1.0:0.0 / mixed_ref=0 / me_range=16 / chroma_me=0 / trellis=0 / 8x8dct=0 / cqm=0 / deadzone=21,11 / chroma_qp_offset=-2 / threads=2 / nr=0 / decimate=1 / mbaff=0 / constrained_intra=0 / bframes=0 / keyint=12 / keyint_min=7 / scenecut=0 / rc_lookahead=29 / rc=cbr / mbtree=1 / bitrate=2000 / ratetol=1.0 / qcomp=0.60 / qpmin=10 / qpmax=51 / qpstep=4 / vbv_maxrate=10000 / vbv_bufsize=10000 / ip_ratio=1.41 / aq=1:1.00\r\nLanguage : German\r\nEncoded date : UTC 1970-01-01 00:00:00\r\nTagged date : UTC 1970-01-01 00:00:00\r\n\r\nAudio\r\nID : 2\r\nFormat : AAC\r\nFormat/Info : Advanced Audio Codec\r\nFormat profile : LC\r\nCodec ID : 40\r\nDuration : 36mn 56s\r\nBit rate mode : Variable\r\nBit rate : 96.0 Kbps\r\nChannel(s) : 2 channels\r\nChannel positions : Front: L R\r\nSampling rate : 44.1 KHz\r\nCompression mode : Lossy\r\nStream size : 25.3 MiB (5%)\r\nLanguage : German\r\nEncoded date : UTC 1970-01-01 00:00:00\r\nTagged date : UTC 1970-01-01 00:00:00\r\n\r\n