Two Teasing Tongues 10 – B

Two Teasing Tongues 10 - AK Two Teasing Tongues 8 A

Posted in HD Porn, Pornstar, Sex Movies, Teen, Threesome | 14557 Views |


Rate this girl !!!




pic\r\n

[K Klixen Productions / clips4sale.com] Cipriana and Jessyka (Two Teasing Tongues 10) [2014 г., Blowjob] B

\r\nTwo Teasing Tongues 10 -B\r\npicImya actress: Cipriana and Jessyka\r\nName movie: Two Teasing Tongues 10\r\nSubsite and site: K Klixen Productions / clips4sale.com\r\nProduction year: 2014\r\nCategory: Blowjob\r\nDuration: 00:48:40\r\nDescription: Cipriana and Jessyka POV oral scene\r\nVideo Format: MP4\r\nVideo codec: H.264 / AVC\r\nAudio codec: AAC\r\nVideo: MPEG4 Video (H264) 852×480 29.97fps 2018kbps\r\nAudio: AAC 44100Hz stereo 95kbps\r\n\r\npic



DOWNLOAD

Keep2share.cc - Uploaded.net - Openload.co - Rapidu.net



http://k2s.cc/file/766045e615e41/Cl1ps.4.S4l3.C1pr14n4%2C.J3ssyk4.Two.T34s1ng.Tongu3s.10.P4rt.B.mp4

http://ul.to/tlwo1ft2/Cl1ps.4.S4l3.C1pr14n4,.J3ssyk4.Two.T34s1ng.Tongu3s.10.P4rt.B.mp4


Premium here:
uploaded.net
keep2share.cc
rapidu.net.cc


Teens related to Two Teasing Tongues 10 – B


Teen xxx sex hd 225384 ryushare uploaded keep2share

Teen xxx sex hd 225384

HD Sex World Videos High Definition Free Porn 1604 ryushare uploaded keep2share

HD Sex World Videos High Definition Free Porn 1604

Free High Quality Sex Movies 2139 ryushare uploaded keep2share

Free High Quality Sex Movies 2139

Young Virgin Pussy Teen Fuck Tube 1905 ryushare uploaded keep2share

Young Virgin Pussy Teen Fuck Tube 1905

Teen porn xxx 223828 ryushare uploaded keep2share

Teen porn xxx 223828

Eva, Alberta, Niona, Nora – Sex party ryushare uploaded keep2share

Eva, Alberta, Niona, Nora – Sex party

17sex viodeos 226514 ryushare uploaded keep2share

17sex viodeos 226514

Teen Tits Tube, Young Girls Porn Videos 2910 ryushare uploaded keep2share

Teen Tits Tube, Young Girls Porn Videos 2910

Teenies Videos – Teen Porn, Teen Sex, XXX Free Videos 2648 ryushare uploaded keep2share

Teenies Videos – Teen Porn, Teen Sex, XXX Free Videos 2648

Klixen – K Fantasies of a Piano Player ryushare uploaded keep2share

Klixen – K Fantasies of a Piano Player

High Definition Movies on HD 225588 ryushare uploaded keep2share

High Definition Movies on HD 225588

Teen Tits Tube, Young Girls Porn Videos 3993 ryushare uploaded keep2share

Teen Tits Tube, Young Girls Porn Videos 3993

Teen Sex Movies 224484 ryushare uploaded keep2share

Teen Sex Movies 224484

Free Porn Videos Xxx Movies Pussy Porn 225817 ryushare uploaded keep2share

Free Porn Videos Xxx Movies Pussy Porn 225817

fuck from behind 226023 ryushare uploaded keep2share

fuck from behind 226023

[POVD.com] Kendall Kayden – Shower Show ryushare uploaded keep2share

[POVD.com] Kendall Kayden – Shower Show

HD sex movies downloads 3688 ryushare uploaded keep2share

HD sex movies downloads 3688

Teen Sex Videos Tube Movies 225416 ryushare uploaded keep2share

Teen Sex Videos Tube Movies 225416

Free Porn Videos Xxx Movies Pussy Porn 3183 ryushare uploaded keep2share

Free Porn Videos Xxx Movies Pussy Porn 3183

Movies Young legal porn 224470 ryushare uploaded keep2share

Movies Young legal porn 224470

Adriana – Slut in a Tu Tu ryushare uploaded keep2share

Adriana – Slut in a Tu Tu

College Teen Sex 224407 ryushare uploaded keep2share

College Teen Sex 224407

www yes xxx hd downlads 226589 ryushare uploaded keep2share

www yes xxx hd downlads 226589

Fucking girl in stockings ryushare uploaded keep2share

Fucking girl in stockings

Teens sex mania 5524 ryushare uploaded keep2share

Teens sex mania 5524

Teens 1080p hd porn 4179 ryushare uploaded keep2share

Teens 1080p hd porn 4179

TrickyMasseur.com Joanna ryushare uploaded keep2share

TrickyMasseur.com Joanna

8 Teen XXX – Teen Sex 4481 ryushare uploaded keep2share

8 Teen XXX – Teen Sex 4481

Teenage Fuck Clips 225863 ryushare uploaded keep2share

Teenage Fuck Clips 225863

bbb wwa com xxx hd 226367 ryushare uploaded keep2share

bbb wwa com xxx hd 226367

Teen Sex Videos Tube Movies 1942 ryushare uploaded keep2share

Teen Sex Videos Tube Movies 1942

low quality of sex video 226074 ryushare uploaded keep2share

low quality of sex video 226074

mania fucking teen hd video ryushare uploaded keep2share

mania fucking teen hd video

Orgy with young teens ryushare uploaded keep2share

Orgy with young teens

Movies Young legal porn 223668 ryushare uploaded keep2share

Movies Young legal porn 223668

Report broken links / Post a comment

You must be logged in to post a comment.



General\r\nComplete name : D:hd teens porn download free online[K Klixen Productions / clips4sale.com] Cipriana and Jessyka (Two Teasing Tongues 10) [2014 г., Blowjob] B.PArt.B.mp4\r\nFormat : MPEG-4\r\nCodec ID : M4V \r\nFile size : 177 MiB\r\nDuration : 11mn 42s\r\nOverall bit rate mode : Variable\r\nOverall bit rate : 2 116 Kbps\r\nEncoded date : UTC 1970-01-01 00:00:00\r\nTagged date : UTC 1970-01-01 00:00:00\r\n\r\nVideo\r\nID : 1\r\nFormat : AVC\r\nFormat/Info : Advanced Video Codec\r\nFormat profile : [email protected]\r\nFormat settings, CABAC : No\r\nFormat settings, ReFrames : 1 frame\r\nFormat settings, GOP : M=1, N=12\r\nCodec ID : avc1\r\nCodec ID/Info : Advanced Video Coding\r\nDuration : 11mn 42s\r\nBit rate : 2 000 Kbps\r\nWidth : 852 pixels\r\nHeight : 480 pixels\r\nDisplay aspect ratio : 16:9\r\nFrame rate mode : Constant\r\nFrame rate : 29.970 fps\r\nColor space : YUV\r\nChroma subsampling : 4:2:0\r\nBit depth : 8 bits\r\nScan type : Progressive\r\nBits/(Pixel*Frame) : 0.163\r\nStream size : 169 MiB (95%)\r\nWriting library : x264 core 77\r\nEncoding settings : cabac=0 / ref=1 / deblock=0:0:0 / analyse=0x1:0 / me=dia / subme=8 / psy=1 / psy_rd=1.0:0.0 / mixed_ref=0 / me_range=16 / chroma_me=0 / trellis=0 / 8x8dct=0 / cqm=0 / deadzone=21,11 / chroma_qp_offset=-2 / threads=2 / nr=0 / decimate=1 / mbaff=0 / constrained_intra=0 / bframes=0 / keyint=12 / keyint_min=7 / scenecut=0 / rc_lookahead=29 / rc=cbr / mbtree=1 / bitrate=2000 / ratetol=1.0 / qcomp=0.60 / qpmin=10 / qpmax=51 / qpstep=4 / vbv_maxrate=10000 / vbv_bufsize=10000 / ip_ratio=1.41 / aq=1:1.00\r\nLanguage : German\r\nEncoded date : UTC 1970-01-01 00:00:00\r\nTagged date : UTC 1970-01-01 00:00:00\r\n\r\nAudio\r\nID : 2\r\nFormat : AAC\r\nFormat/Info : Advanced Audio Codec\r\nFormat profile : LC\r\nCodec ID : 40\r\nDuration : 11mn 42s\r\nBit rate mode : Variable\r\nBit rate : 96.0 Kbps\r\nChannel(s) : 2 channels\r\nChannel positions : Front: L R\r\nSampling rate : 44.1 KHz\r\nCompression mode : Lossy\r\nStream size : 8.01 MiB (5%)\r\nLanguage : German\r\nEncoded date : UTC 1970-01-01 00:00:00\r\nTagged date : UTC 1970-01-01 00:00:00\r\n\r\n