Two cocks for a teen

Hot amateurBeautiful small tits blonde

Posted in HD Porn, Sex Movies, Teen, Threesome | 6597 Views |


Rate this girl !!!




\r\n\r\n2.jpg\r\n\r\nTwo cocks for a teen\r\n\r\n Link(621 Mb||33:21||1280*720||MP4)



DOWNLOAD

Keep2share.cc - Uploaded.net - Openload.co - Rapidu.net


http://keep2share.cc/file/52dde499f1d4d
http://ul.to/0znjb12x
http://ryushare.com/1a775f2b1ebf/PRTGRSlv.rar


Premium here:
uploaded.net
keep2share.cc
rapidu.net.cc


Teens related to Two cocks for a teen


Hd quality – Teen sex video 2198 ryushare uploaded keep2share

Hd quality – Teen sex video 2198

porne vedio mkv formate 226102 ryushare uploaded keep2share

porne vedio mkv formate 226102

www full hd video fucking com ryushare uploaded keep2share

www full hd video fucking com

Hot Teen Sex 2988 ryushare uploaded keep2share

Hot Teen Sex 2988

High Definition Movies on HD 225835 ryushare uploaded keep2share

High Definition Movies on HD 225835

HD Porn Videos 1476 ryushare uploaded keep2share

HD Porn Videos 1476

Hot Teen Sex HD videos 1883 ryushare uploaded keep2share

Hot Teen Sex HD videos 1883

Porn HD Sex HD Teen Sex 224548 ryushare uploaded keep2share

Porn HD Sex HD Teen Sex 224548

Fresh Teen Videos 2655 ryushare uploaded keep2share

Fresh Teen Videos 2655

www Short hd sexvideos Com ryushare uploaded keep2share

www Short hd sexvideos Com

pc xxx movie clips 226764 ryushare uploaded keep2share

pc xxx movie clips 226764

Teen Sex Movies 3822 ryushare uploaded keep2share

Teen Sex Movies 3822

Hardcore sex videos in the high definition quality 5010 ryushare uploaded keep2share

Hardcore sex videos in the high definition quality 5010

www sex video hdfast time 226460 ryushare uploaded keep2share

www sex video hdfast time 226460

porn movies ass fucking mkv download 226144 ryushare uploaded keep2share

porn movies ass fucking mkv download 226144

iglish porn sexi 226443 ryushare uploaded keep2share

iglish porn sexi 226443

www xxx hd movi in 226018 ryushare uploaded keep2share

www xxx hd movi in 226018

Maria Pie And Nomi – Melting Like Butter ryushare uploaded keep2share

Maria Pie And Nomi – Melting Like Butter

18YearsOld.com Megan Rain – Playing Hooky ryushare uploaded keep2share

18YearsOld.com Megan Rain – Playing Hooky

Sasha Foxxx (Edge Play with Sasha Foxxx) ryushare uploaded keep2share

Sasha Foxxx (Edge Play with Sasha Foxxx)

Watch Teen Sex Videos HD 1246 ryushare uploaded keep2share

Watch Teen Sex Videos HD 1246

Young XXX Tube Videos 3741 ryushare uploaded keep2share

Young XXX Tube Videos 3741

Sweet Teen Porn – Young Porn Videos 224592 ryushare uploaded keep2share

Sweet Teen Porn – Young Porn Videos 224592

Wow Porn Movies download) 225419 ryushare uploaded keep2share

Wow Porn Movies download) 225419

Teen Sex Movies Young Porn Tube Vids 5156 ryushare uploaded keep2share

Teen Sex Movies Young Porn Tube Vids 5156

Www xxx 99net com 226260 ryushare uploaded keep2share

Www xxx 99net com 226260

Wow Porn Teen Movies HD ryushare uploaded keep2share

Wow Porn Teen Movies HD

First time Sexual Films 18 sex xxx 3226 ryushare uploaded keep2share

First time Sexual Films 18 sex xxx 3226

HQ Sex Movies Download 4182 ryushare uploaded keep2share

HQ Sex Movies Download 4182

HD xxx videos direct mobi downloads 226051 ryushare uploaded keep2share

HD xxx videos direct mobi downloads 226051

Teen Tits Tube, Young Girls Porn Videos 225601 ryushare uploaded keep2share

Teen Tits Tube, Young Girls Porn Videos 225601

Watch Teen Sex Videos HD 4869 ryushare uploaded keep2share

Watch Teen Sex Videos HD 4869

HD Porn Videos 4556 ryushare uploaded keep2share

HD Porn Videos 4556

titshed net tube 226095 ryushare uploaded keep2share

titshed net tube 226095

8teen sex free movies com ryushare uploaded keep2share

8teen sex free movies com

Report broken links / Post a comment

You must be logged in to post a comment.



General\r\nComplete name : D:Two cocks for a teenPRTGRSlvPRTGRSlv.mp4\r\nFormat : MPEG-4\r\nFormat profile : Base Media\r\nCodec ID : isom\r\nFile size : 621 MiB\r\nDuration : 33mn 21s\r\nOverall bit rate mode : Variable\r\nOverall bit rate : 2 603 Kbps\r\nEncoded date : UTC 2014-01-13 09:37:48\r\nTagged date : UTC 2014-01-13 09:37:48\r\nWriting application : My MP4Box GUI 0.6.0.6 \r\n\r\nVideo\r\nID : 1\r\nFormat : AVC\r\nFormat/Info : Advanced Video Codec\r\nFormat profile : [email protected]\r\nFormat settings, CABAC : Yes\r\nFormat settings, ReFrames : 4 frames\r\nFormat settings, GOP : M=4, N=100\r\nCodec ID : avc1\r\nCodec ID/Info : Advanced Video Coding\r\nDuration : 33mn 21s\r\nBit rate mode : Variable\r\nBit rate : 2 344 Kbps\r\nMaximum bit rate : 2 500 Kbps\r\nWidth : 1 280 pixels\r\nHeight : 720 pixels\r\nDisplay aspect ratio : 16:9\r\nFrame rate mode : Constant\r\nFrame rate : 25.000 fps\r\nColor space : YUV\r\nChroma subsampling : 4:2:0\r\nBit depth : 8 bits\r\nScan type : Progressive\r\nBits/(Pixel*Frame) : 0.102\r\nStream size : 559 MiB (90%)\r\nTitle : SPE089_s05_720.h264\r\nEncoded date : UTC 2014-01-13 09:37:48\r\nTagged date : UTC 2014-01-13 09:38:00\r\nColor primaries : BT.709\r\nTransfer characteristics : BT.709\r\nMatrix coefficients : BT.709\r\n\r\nAudio\r\nID : 2\r\nFormat : AAC\r\nFormat/Info : Advanced Audio Codec\r\nFormat profile : LC\r\nCodec ID : 40\r\nDuration : 33mn 21s\r\nBit rate mode : Variable\r\nBit rate : 125 Kbps\r\nMaximum bit rate : 158 Kbps\r\nChannel(s) : 2 channels\r\nChannel positions : Front: L R\r\nSampling rate : 48.0 KHz\r\nCompression mode : Lossy\r\nStream size : 29.8 MiB (5%)\r\nTitle : SPE089_s05_audio.mp4\r\nLanguage : English\r\nEncoded date : UTC 2014-01-13 09:37:58\r\nTagged date : UTC 2014-01-13 09:38:00\r\n\r\n