Tube Young Sex 3680

Hd quality - Teen sex video 3683Teen Sex Porn Videos Free Nude Teens 3671

Posted in Amateur, HD Porn, Sex Movies, Teen | 10643 Views |


Rate this girl !!!




\r\n\r\n9.jpeg



DOWNLOAD

Keep2share.cc - Uploaded.net - Openload.co - Rapidu.net


http://ul.to/bt5k8h03/NGSBNvd.wmv
http://fileom.com/9lh84b39fuk1/NGSBNvd.wmv.html
http://k2s.cc/file/90029b3b3aa77/NGSBNvd.wmv
http://ryushare.com/fmc2quu4ts71/NGSBNvd.wmv


Premium here:
uploaded.net
keep2share.cc
rapidu.net.cc


Teens related to Tube Young Sex 3680


Teen Sex Movies Young Porn Tube Vids 224709 ryushare uploaded keep2share

Teen Sex Movies Young Porn Tube Vids 224709

Hot Teen Sex 2379 ryushare uploaded keep2share

Hot Teen Sex 2379

xvideo teen mania 226536 ryushare uploaded keep2share

xvideo teen mania 226536

HD Sex World Videos High Definition Free Porn 5342 ryushare uploaded keep2share

HD Sex World Videos High Definition Free Porn 5342

HD Porn Video 1358 ryushare uploaded keep2share

HD Porn Video 1358

Hd quality – Teen sex video 2198 ryushare uploaded keep2share

Hd quality – Teen sex video 2198

video9 in xxxsex 226754 ryushare uploaded keep2share

video9 in xxxsex 226754

JimSlip – Tina Hot – From book-worm to whore ryushare uploaded keep2share

JimSlip – Tina Hot – From book-worm to whore

mania teennporn 226597 ryushare uploaded keep2share

mania teennporn 226597

Tube xxx 223900 ryushare uploaded keep2share

Tube xxx 223900

Porno lesbian young teens movies 4248 ryushare uploaded keep2share

Porno lesbian young teens movies 4248

Tube xxx 223693 ryushare uploaded keep2share

Tube xxx 223693

Babes Giselle Leon 1080p ryushare uploaded keep2share

Babes Giselle Leon 1080p

HD Sex World Videos High Definition Free Porn 224629 ryushare uploaded keep2share

HD Sex World Videos High Definition Free Porn 224629

Teens 1080p hd porn 2862 ryushare uploaded keep2share

Teens 1080p hd porn 2862

1080p porn free dounloaded videos ryushare uploaded keep2share

1080p porn free dounloaded videos

Teens in Porno young porn videos and free teen sex 225262 ryushare uploaded keep2share

Teens in Porno young porn videos and free teen sex 225262

Free Young Porn Videos XXX Teen Porn 2569 ryushare uploaded keep2share

Free Young Porn Videos XXX Teen Porn 2569

www hd 18years sex videos free downlode net 226256 ryushare uploaded keep2share

www hd 18years sex videos free downlode net 226256

18 years girl xxx sex videos) 2758 ryushare uploaded keep2share

18 years girl xxx sex videos) 2758

Daisy, Jasmine – Boats n Hoes ryushare uploaded keep2share

Daisy, Jasmine – Boats n Hoes

Young Sex Movies 5160 ryushare uploaded keep2share

Young Sex Movies 5160

K Two Teasing Tongues 8 B ryushare uploaded keep2share

K Two Teasing Tongues 8 B

Alyona, Klara & Paloma – Strap-on Adventure ryushare uploaded keep2share

Alyona, Klara & Paloma – Strap-on Adventure

High Definition Movies on HD 3998 ryushare uploaded keep2share

High Definition Movies on HD 3998

Angel-Desert – Publics Pizzeria – Il Gusto ryushare uploaded keep2share

Angel-Desert – Publics Pizzeria – Il Gusto

xxx videoss of small mb dowwnload ryushare uploaded keep2share

xxx videoss of small mb dowwnload

Alica – Quiet but deadly ryushare uploaded keep2share

Alica – Quiet but deadly

PORNOZZ FULL 720 226768 ryushare uploaded keep2share

PORNOZZ FULL 720 226768

Hardcore Sex Hub 225234 ryushare uploaded keep2share

Hardcore Sex Hub 225234

Free High Quality Sex Movies 1175 ryushare uploaded keep2share

Free High Quality Sex Movies 1175

Sex Teens porn movies 3718 ryushare uploaded keep2share

Sex Teens porn movies 3718

worldsex com mp4 hd clip ryushare uploaded keep2share

worldsex com mp4 hd clip

Small girls and boys porn 4002 ryushare uploaded keep2share

Small girls and boys porn 4002

Shining Ass – Bianca AKA: Aline, Asya ryushare uploaded keep2share

Shining Ass – Bianca AKA: Aline, Asya

Report broken links / Post a comment

You must be logged in to post a comment.



General\r\nComplete name : D:hd pornstars teens ryushare.com uploaded.net keep2share.cc fileom.com download porn movies clips NGSBNvd.wmv\r\nFormat : Windows Media\r\nFile size : 762 MiB\r\nDuration : 20mn 16s\r\nOverall bit rate mode : Constant\r\nOverall bit rate : 5 254 Kbps\r\nMaximum Overall bit rate : 5 290 Kbps\r\nPerformer : Royal-Cash.com\r\nEncoded date : UTC 2014-05-23 11:16:57.685\r\nCopyright : Royal-Cash.com\r\n\r\nVideo\r\nID : 2\r\nFormat : VC-1\r\nFormat profile : [email protected]\r\nCodec ID : WMV3\r\nCodec ID/Info : Windows Media Video 9\r\nCodec ID/Hint : WMV3\r\nDescription of the codec : Windows Media Video 9 - Professional\r\nDuration : 20mn 16s\r\nBit rate mode : Constant\r\nBit rate : 5 120 Kbps\r\nWidth : 1 280 pixels\r\nHeight : 720 pixels\r\nDisplay aspect ratio : 16:9\r\nFrame rate : 25.000 fps\r\nColor space : YUV\r\nChroma subsampling : 4:2:0\r\nBit depth : 8 bits\r\nScan type : Progressive\r\nCompression mode : Lossy\r\nBits/(Pixel*Frame) : 0.222\r\nStream size : 742 MiB (97%)\r\nLanguage : Russian\r\nNumberOfFrames : 30390\r\n\r\nAudio\r\nID : 1\r\nFormat : WMA\r\nFormat version : Version 2\r\nCodec ID : 161\r\nCodec ID/Info : Windows Media Audio\r\nDescription of the codec : Windows Media Audio 9.2 - 128 kbps, 44 kHz, stereo 1-pass CBR\r\nDuration : 20mn 16s\r\nBit rate mode : Constant\r\nBit rate : 128 Kbps\r\nChannel(s) : 2 channels\r\nSampling rate : 44.1 KHz\r\nBit depth : 16 bits\r\nStream size : 18.6 MiB (2%)\r\nLanguage : Russian\r\nNumberOfFrames : 3273\r\n\r\nhd pornstars teens ryushare.com uploaded.net keep2share.cc fileom.com download porn movies clips