Veronica Radke Tube Young Sex 3483

Wow girls porn teens 3486Hot hd teen sex videos 3484

Posted in HD Porn, Pornstar, Sex Movies, Teen | 18512 Views |


Rate this girl !!!




porn-sex-teens-hd-thumb-2013-10-29-09h45m43s140\r\n\r\nporn-sex-teens-hd-thumb-2013-10-29-09h46m19s244\r\n\r\nporn-sex-teens-hd-thumb-2013-10-29-09h49m24s16\r\n\r\nporn-sex-teens-hd-thumb-2013-10-29-09h51m51s249\r\n\r\nporn-sex-teens-hd-thumb-2013-10-29-09h50m08s239\r\n

Veronica Radke

\r\nFile: Veronica – Morning sex with nice model – Full HD.mp4\r\nSize: 1220484762 bytes (1.14 GiB), duration: 00:18:05, avg.bitrate: 8999 kb/s\r\nAudio: aac, 44100 Hz, stereo, s16, 151 kb/s (eng)\r\nVideo: h264, yuv420p, 1920×1080, 8840 kb/s, 23.98 fps(r) (eng)\r\n\r\n 



DOWNLOAD

Keep2share.cc - Uploaded.net - Openload.co - Rapidu.net


http://fileom.com/lxzbv9htn566/V3r0n1ca.R4dk3.M0rning.S3x.HD.part1.rar.html
http://fileom.com/j5h6fxrugcs6/V3r0n1ca.R4dk3.M0rning.S3x.HD.part2.rar.html
http://k2s.cc/file/aed5fa761c0bf/V3r0n1ca.R4dk3.M0rning.S3x.HD.part1.rar
http://k2s.cc/file/feb395fa7e27a/V3r0n1ca.R4dk3.M0rning.S3x.HD.part2.rar
http://ryushare.com/bkg6lhskbm1s/V3r0n1ca.R4dk3.M0rning.S3x.HD.part1.rar
http://ryushare.com/kh1lf7gr0zlv/V3r0n1ca.R4dk3.M0rning.S3x.HD.part2.rar
http://ul.to/bbew9k00/V3r0n1ca.R4dk3.M0rning.S3x.HD.part1.rar
http://ul.to/1dodpalt/V3r0n1ca.R4dk3.M0rning.S3x.HD.part2.rar


Premium here:
uploaded.net
keep2share.cc
rapidu.net.cc

Teens related to Veronica Radke Tube Young Sex 3483


Young 720p hd porn 4148 ryushare uploaded keep2share

Young 720p hd porn 4148

Hot Teen Sex HD videos 1149 ryushare uploaded keep2share

Hot Teen Sex HD videos 1149

Watch Teen Sex Videos HD 225475 ryushare uploaded keep2share

Watch Teen Sex Videos HD 225475

Fresh Teen Videos 224890 ryushare uploaded keep2share

Fresh Teen Videos 224890

Porn HD Sex HD Teen Sex 1482 ryushare uploaded keep2share

Porn HD Sex HD Teen Sex 1482

Teen Sex Movies Young Porn Tube Vids 4969 ryushare uploaded keep2share

Teen Sex Movies Young Porn Tube Vids 4969

Maaike – A nice handjob to finish it ryushare uploaded keep2share

Maaike – A nice handjob to finish it

[RylskyArt.com] Welesa Wil – Grenarz ryushare uploaded keep2share

[RylskyArt.com] Welesa Wil – Grenarz

High Definition Movies on HD 224755 ryushare uploaded keep2share

High Definition Movies on HD 224755

Teen porn movies 225157 ryushare uploaded keep2share

Teen porn movies 225157

Babes Giselle Leon 1080p ryushare uploaded keep2share

Babes Giselle Leon 1080p

Tube xxx 224403 ryushare uploaded keep2share

Tube xxx 224403

xxx video9 HDdownload com ryushare uploaded keep2share

xxx video9 HDdownload com

Brunette Shelia Gets a Big Load Of Cum ryushare uploaded keep2share

Brunette Shelia Gets a Big Load Of Cum

Teen Sex Movies Young Porn Tube Vids 225369 ryushare uploaded keep2share

Teen Sex Movies Young Porn Tube Vids 225369

porne vedio mkv formate 226102 ryushare uploaded keep2share

porne vedio mkv formate 226102

Xxxsexvidoa comhd ryushare uploaded keep2share

Xxxsexvidoa comhd

TrickyMasseur.com January ryushare uploaded keep2share

TrickyMasseur.com January

Teens 1080p hd porn 2862 ryushare uploaded keep2share

Teens 1080p hd porn 2862

8 Teen XXX – Teen Sex 5638 ryushare uploaded keep2share

8 Teen XXX – Teen Sex 5638

Hot sex girls movies download 2809 ryushare uploaded keep2share

Hot sex girls movies download 2809

Anal with beautiful teen ryushare uploaded keep2share

Anal with beautiful teen

Tube Young Sex 4191 ryushare uploaded keep2share

Tube Young Sex 4191

Hot Teen Sex HD videos 224298 ryushare uploaded keep2share

Hot Teen Sex HD videos 224298

Hardcore Sex Hub 225062 ryushare uploaded keep2share

Hardcore Sex Hub 225062

www sex com video high quality free downloading 226323 ryushare uploaded keep2share

www sex com video high quality free downloading 226323

Watch Teen Sex Videos HD 3515 ryushare uploaded keep2share

Watch Teen Sex Videos HD 3515

Hardcore Sex Hub 4983 ryushare uploaded keep2share

Hardcore Sex Hub 4983

Wow Porn Movies download) 5153 ryushare uploaded keep2share

Wow Porn Movies download) 5153

school porno movies ryushare uploaded keep2share

school porno movies

Teen 18 Porn XXX Clips Naked 224373 ryushare uploaded keep2share

Teen 18 Porn XXX Clips Naked 224373

Sweet Teen Porn – Young Porn Videos 4327 ryushare uploaded keep2share

Sweet Teen Porn – Young Porn Videos 4327

Teen Sex Videos Tube Movies 1759 ryushare uploaded keep2share

Teen Sex Videos Tube Movies 1759

Girls do porn in HD 224797 ryushare uploaded keep2share

Girls do porn in HD 224797

www full hd porn downlod 226719 ryushare uploaded keep2share

www full hd porn downlod 226719

Report broken links / Post a comment

You must be logged in to post a comment.



General\r\nComplete name : H:HD Porn DownloadVeronica - Morning sex with nice model - Full HD.mp4\r\nFormat : MPEG-4\r\nFormat profile : Base Media\r\nCodec ID : isom\r\nFile size : 1.14 GiB\r\nDuration : 18mn 5s\r\nOverall bit rate mode : Variable\r\nOverall bit rate : 8 999 Kbps\r\nWriting application : Lavf54.25.104\r\n\r\nVideo\r\nID : 1\r\nFormat : AVC\r\nFormat/Info : Advanced Video Codec\r\nFormat profile : [email protected]\r\nFormat settings, CABAC : Yes\r\nFormat settings, ReFrames : 4 frames\r\nCodec ID : avc1\r\nCodec ID/Info : Advanced Video Coding\r\nDuration : 18mn 5s\r\nBit rate : 8 841 Kbps\r\nWidth : 1 920 pixels\r\nHeight : 1 080 pixels\r\nDisplay aspect ratio : 16:9\r\nFrame rate mode : Constant\r\nFrame rate : 23.976 fps\r\nColor space : YUV\r\nChroma subsampling : 4:2:0\r\nBit depth : 8 bits\r\nScan type : Progressive\r\nBits/(Pixel*Frame) : 0.178\r\nStream size : 1.12 GiB (98%)\r\nWriting library : x264 core 125 r2208 d9d2288\r\nEncoding settings : cabac=1 / ref=2 / deblock=1:-1:-1 / analyse=0x1:0x111 / me=umh / subme=8 / psy=1 / psy_rd=1.00:0.15 / mixed_ref=1 / me_range=16 / chroma_me=1 / trellis=1 / 8x8dct=0 / cqm=0 / deadzone=21,11 / fast_pskip=1 / chroma_qp_offset=-3 / threads=1 / lookahead_threads=1 / sliced_threads=0 / nr=0 / decimate=1 / interlaced=0 / bluray_compat=0 / constrained_intra=0 / bframes=3 / b_pyramid=2 / b_adapt=2 / b_bias=0 / direct=3 / weightb=1 / open_gop=0 / weightp=0 / keyint=250 / keyint_min=23 / scenecut=40 / intra_refresh=0 / rc_lookahead=50 / rc=crf / mbtree=1 / crf=18.0 / qcomp=0.60 / qpmin=0 / qpmax=69 / qpstep=4 / ip_ratio=1.40 / aq=1:1.00\r\nLanguage : English\r\n\r\nAudio\r\nID : 2\r\nFormat : AAC\r\nFormat/Info : Advanced Audio Codec\r\nFormat profile : LC\r\nCodec ID : 40\r\nDuration : 18mn 4s\r\nDuration_LastFrame : -1ms\r\nBit rate mode : Variable\r\nBit rate : 152 Kbps\r\nMaximum bit rate : 196 Kbps\r\nChannel(s) : 2 channels\r\nChannel positions : Front: L R\r\nSampling rate : 44.1 KHz\r\nCompression mode : Lossy\r\nDelay relative to video : 83ms\r\nStream size : 19.7 MiB (2%)\r\nLanguage : English