Ibiza Party – Teens Sex

Dominika & Nathaly Heaven – FistgasmTracy Smile - Soldier

Posted in Amateur, HD Porn, Sex Movies, Teen, Threesome | 13755 Views |


Rate this girl !!!




\r\n\r\n\r\nhttp://img103.imagetwist.com/i/05291/vnbxt9slq940.jpg\r\n\r\n Ibiza Party – Teens Sex\r\n\r\nLink(908 Mb||54:44||1280*720||MP4)



DOWNLOAD

Keep2share.cc - Uploaded.net - Openload.co - Rapidu.net


http://ryushare.com/82patlgl1dcl/C.G.S..P.TB.c.h.mp4
http://ul.to/y8b94qhl/C.G.S..P.TB.c.h.mp4
http://k2s.cc/file/29ea1762c1fef/C.G.S..P.TB.c.h.mp4


Premium here:
uploaded.net
keep2share.cc
rapidu.net.cc


Teens related to Ibiza Party – Teens Sex


Porn party teen girls 224438 ryushare uploaded keep2share

Porn party teen girls 224438

sexy video download hd in low mb 226202 ryushare uploaded keep2share

sexy video download hd in low mb 226202

College Teen Sex 5458 ryushare uploaded keep2share

College Teen Sex 5458

xxxnx videos hd 18 con 226659 ryushare uploaded keep2share

xxxnx videos hd 18 con 226659

Wow porn tube movies 224745 ryushare uploaded keep2share

Wow porn tube movies 224745

Amateur Teen Sex 224827 ryushare uploaded keep2share

Amateur Teen Sex 224827

Teen Sex Movies 1141 ryushare uploaded keep2share

Teen Sex Movies 1141

Teens in Porno young porn videos and free teen sex 3051 ryushare uploaded keep2share

Teens in Porno young porn videos and free teen sex 3051

Malena Morgan – I Don’t Sing In The Shower ryushare uploaded keep2share

Malena Morgan – I Don’t Sing In The Shower

Girls sex art hd teens videos 225744 ryushare uploaded keep2share

Girls sex art hd teens videos 225744

HD sex movies downloads 2841 ryushare uploaded keep2share

HD sex movies downloads 2841

Teena Dolly ryushare uploaded keep2share

Teena Dolly

Teen Sex Movies Young Porn Tube Vids 224610 ryushare uploaded keep2share

Teen Sex Movies Young Porn Tube Vids 224610

2016 hd vizyon sexy cd filmler ryushare uploaded keep2share

2016 hd vizyon sexy cd filmler

Hd quality – Teen sex video 4204 ryushare uploaded keep2share

Hd quality – Teen sex video 4204

Porn HD Sex HD Teen Sex 3694 ryushare uploaded keep2share

Porn HD Sex HD Teen Sex 3694

Fresh Teen Videos 224791 ryushare uploaded keep2share

Fresh Teen Videos 224791

Wow porn tube movies 224325 ryushare uploaded keep2share

Wow porn tube movies 224325

xxxx clips hd download 226318 ryushare uploaded keep2share

xxxx clips hd download 226318

Wow girls downloads hd 225203 ryushare uploaded keep2share

Wow girls downloads hd 225203

[JulesJordan.com] Karmen Karma (Karmen Karma’s Wet Ass Devours A Cock / 03.02.2016) [2016 г., Anal, Big Butts, Big Tits, Blowjobs, Brunettes, Facial, Tattoo, 720p] ryushare uploaded keep2share

[JulesJordan.com] Karmen Karma (Karmen Karma’s Wet Ass Devours A Cock / 03.02.2016) [2016 г., Anal, Big Butts, Big Tits, Blowjobs, Brunettes, Facial, Tattoo, 720p]

First time Sexual Films 18 sex xxx 225737 ryushare uploaded keep2share

First time Sexual Films 18 sex xxx 225737

world hd sex clips 226188 ryushare uploaded keep2share

world hd sex clips 226188

Teen Tits Tube, Young Girls Porn Videos 1565 ryushare uploaded keep2share

Teen Tits Tube, Young Girls Porn Videos 1565

Adult Hardcore XXX Sex Videos 4052 ryushare uploaded keep2share

Adult Hardcore XXX Sex Videos 4052

Nude Teens fucking hard 2531 ryushare uploaded keep2share

Nude Teens fucking hard 2531

YoungCourtesans.com Shakti – Special Sex Arrangement ryushare uploaded keep2share

YoungCourtesans.com Shakti – Special Sex Arrangement

Young XXX Tube Videos 3884 ryushare uploaded keep2share

Young XXX Tube Videos 3884

Teen Tits Tube, Young Girls Porn Videos 2547 ryushare uploaded keep2share

Teen Tits Tube, Young Girls Porn Videos 2547

High Definition Movies on HD 1754 ryushare uploaded keep2share

High Definition Movies on HD 1754

Hot Teen Sex 1274 ryushare uploaded keep2share

Hot Teen Sex 1274

pc hd fucking clip 226607 ryushare uploaded keep2share

pc hd fucking clip 226607

AbbyWinters.com – Carmina & Pablo ryushare uploaded keep2share

AbbyWinters.com – Carmina & Pablo

ww hot sex hdvideo download com ryushare uploaded keep2share

ww hot sex hdvideo download com

Alyona – Hardcore Parlour ryushare uploaded keep2share

Alyona – Hardcore Parlour

Report broken links / Post a comment

You must be logged in to post a comment.



General\r\nComplete name : D:HD Teens Download Porn Sex clips movies Tube.xxxCGSPTBchCGSPTBch.mp4\r\nFormat : MPEG-4\r\nFormat profile : Base Media\r\nCodec ID : isom\r\nFile size : 908 MiB\r\nDuration : 54mn 44s\r\nOverall bit rate : 2 320 Kbps\r\nWriting application : Lavf55.12.102\r\n\r\nVideo\r\nID : 1\r\nFormat : AVC\r\nFormat/Info : Advanced Video Codec\r\nFormat profile : [email protected]\r\nFormat settings, CABAC : Yes\r\nFormat settings, ReFrames : 5 frames\r\nCodec ID : avc1\r\nCodec ID/Info : Advanced Video Coding\r\nDuration : 54mn 44s\r\nBit rate : 2 248 Kbps\r\nWidth : 1 280 pixels\r\nHeight : 720 pixels\r\nDisplay aspect ratio : 16:9\r\nFrame rate mode : Constant\r\nFrame rate : 29.970 fps\r\nColor space : YUV\r\nChroma subsampling : 4:2:0\r\nBit depth : 8 bits\r\nScan type : Progressive\r\nBits/(Pixel*Frame) : 0.081\r\nStream size : 880 MiB (97%)\r\nWriting library : x264 core 133 r2334 a3ac64b\r\nEncoding settings : cabac=1 / ref=5 / deblock=1:0:0 / analyse=0x3:0x113 / me=umh / subme=8 / psy=1 / psy_rd=1.00:0.00 / mixed_ref=1 / me_range=16 / chroma_me=1 / trellis=1 / 8x8dct=1 / cqm=0 / deadzone=21,11 / fast_pskip=1 / chroma_qp_offset=2 / threads=6 / lookahead_threads=1 / sliced_threads=0 / nr=0 / decimate=1 / interlaced=0 / bluray_compat=0 / constrained_intra=0 / bframes=3 / b_pyramid=2 / b_adapt=2 / b_bias=0 / direct=3 / weightb=1 / open_gop=0 / weightp=2 / keyint=150 / keyint_min=15 / scenecut=40 / intra_refresh=0 / rc_lookahead=50 / rc=crf / mbtree=1 / crf=24.0 / qcomp=0.60 / qpmin=0 / qpmax=69 / qpstep=4 / vbv_maxrate=3000 / vbv_bufsize=3000 / crf_max=0.0 / nal_hrd=none / ip_ratio=1.40 / aq=1:1.00\r\n\r\nAudio\r\nID : 2\r\nFormat : AAC\r\nFormat/Info : Advanced Audio Codec\r\nFormat profile : LC\r\nCodec ID : 40\r\nDuration : 54mn 44s\r\nDuration_LastFrame : -10ms\r\nBit rate mode : Constant\r\nBit rate : 63.8 Kbps\r\nChannel(s) : 2 channels\r\nChannel(s)_Original : 1 channel\r\nChannel positions : Front: C\r\nSampling rate : 44.1 KHz\r\nCompression mode : Lossy\r\nStream size : 25.0 MiB (3%)\r\n\r\n