Tube Young Sex 1406

Free Teen Porn Videos at Teen Sex Tube XXX 1416Young Sex Movies 1400

Posted in Amateur, HD Porn, Sex Movies, Teen | 8285 Views |


Rate this girl !!!




\r\n\r\nhttp://img102.imagetwist.com/i/05210/npbmt6a236a8.jpg\r\n\r\n Link(370 Mb||23:59||1280*720||WMV)



DOWNLOAD

Keep2share.cc - Uploaded.net - Openload.co - Rapidu.net


http://keep2share.cc/file/327aa6e665198
http://ryushare.com/kv3relyrjvrb/GHNBPRds.rar
http://ul.to/y6tqo3yk


Premium here:
uploaded.net
keep2share.cc
rapidu.net.cc


Teens related to Tube Young Sex 1406


Teen Sex Movies 4083 ryushare uploaded keep2share

Teen Sex Movies 4083

Super hot teens fuck swim pool ryushare uploaded keep2share

Super hot teens fuck swim pool

Petite Teeny Who Loves Cock ryushare uploaded keep2share

Petite Teeny Who Loves Cock

Young XXX Tube Videos 4335 ryushare uploaded keep2share

Young XXX Tube Videos 4335

Klixen – K Two Teasing Tongues 12 – A ryushare uploaded keep2share

Klixen – K Two Teasing Tongues 12 – A

HD Porn Videos 2800 ryushare uploaded keep2share

HD Porn Videos 2800

Creampie-Angels.com Sheri Vi ryushare uploaded keep2share

Creampie-Angels.com Sheri Vi

Daria – Clinic Sex ryushare uploaded keep2share

Daria – Clinic Sex

wow so hot movies hd faapy xxx com ryushare uploaded keep2share

wow so hot movies hd faapy xxx com

HD sex movies downloads 3688 ryushare uploaded keep2share

HD sex movies downloads 3688

Teen Sex Videos Tube Movies 1740 ryushare uploaded keep2share

Teen Sex Videos Tube Movies 1740

Fat Cock vs Horny Pussies ryushare uploaded keep2share

Fat Cock vs Horny Pussies

High Definition Movies on HD Teen Porn XXX Tube 1919 ryushare uploaded keep2share

High Definition Movies on HD Teen Porn XXX Tube 1919

xxcsex video ryushare uploaded keep2share

xxcsex video

Teen porn movies 225211 ryushare uploaded keep2share

Teen porn movies 225211

porn xxx sex movies mkv free download 226603 ryushare uploaded keep2share

porn xxx sex movies mkv free download 226603

Taissia Shanti – Delicate ryushare uploaded keep2share

Taissia Shanti – Delicate

21Naturals.com Ashley ryushare uploaded keep2share

21Naturals.com Ashley

Fresh Teen Videos 3763 ryushare uploaded keep2share

Fresh Teen Videos 3763

hd 720p porn vdo download ryushare uploaded keep2share

hd 720p porn vdo download

Free Teen Porn Videos at Teen Sex Tube XXX 3711 ryushare uploaded keep2share

Free Teen Porn Videos at Teen Sex Tube XXX 3711

Teen Sex Movies 224577 ryushare uploaded keep2share

Teen Sex Movies 224577

wow-Girlsporn net 226212 ryushare uploaded keep2share

wow-Girlsporn net 226212

Elly (My Secret Lover) ryushare uploaded keep2share

Elly (My Secret Lover)

Daisy, Karin ryushare uploaded keep2share

Daisy, Karin

Teen porn movies 2125 ryushare uploaded keep2share

Teen porn movies 2125

PC HD MP4 XXX COM 226748 ryushare uploaded keep2share

PC HD MP4 XXX COM 226748

BRAZZERS sex hd videos download ryushare uploaded keep2share

BRAZZERS sex hd videos download

Teenage Fuck Clips 3405 ryushare uploaded keep2share

Teenage Fuck Clips 3405

www free hd short porn clips ryushare uploaded keep2share

www free hd short porn clips

virgin fuck girl clips 226391 ryushare uploaded keep2share

virgin fuck girl clips 226391

teenseks1819 226156 ryushare uploaded keep2share

teenseks1819 226156

Tiffany Fox, Alina Li – Sleepover Aftermath ryushare uploaded keep2share

Tiffany Fox, Alina Li – Sleepover Aftermath

AbbyWinters.com – Carmina & Pablo ryushare uploaded keep2share

AbbyWinters.com – Carmina & Pablo

proun hup xxx video mp4 ryushare uploaded keep2share

proun hup xxx video mp4

Report broken links / Post a comment

You must be logged in to post a comment.



General\r\nComplete name : D:HD Teens Download Porn Sex clips movies Tube.xxxGHNBPRdsGHNBPRds.wmv\r\nFormat : Windows Media\r\nFile size : 370 MiB\r\nDuration : 23mn 59s\r\nOverall bit rate : 2 157 Kbps\r\nMaximum Overall bit rate : 2 148 Kbps\r\nEncoded date : UTC 2014-01-23 19:47:37.000\r\nWriting application : Flip4Mac WMV Export Component for QuickTime (Mac) 3201耀렸脴ꅀ耀\r\n\r\nVideo\r\nID : 2\r\nFormat : VC-1\r\nFormat profile : Main\r\nCodec ID : WMV3\r\nCodec ID/Info : Windows Media Video 9\r\nCodec ID/Hint : WMV3\r\nDescription of the codec : Windows Media Video V9 - 1280 x 720, 29.97 fps, 2100 kbps (CBR)\r\nDuration : 23mn 59s\r\nBit rate : 2 100 Kbps\r\nWidth : 1 280 pixels\r\nHeight : 720 pixels\r\nDisplay aspect ratio : 16:9\r\nFrame rate : 29.970 fps\r\nColor space : YUV\r\nChroma subsampling : 4:2:0\r\nBit depth : 8 bits\r\nScan type : Progressive\r\nCompression mode : Lossy\r\nBits/(Pixel*Frame) : 0.076\r\nStream size : 360 MiB (97%)\r\nLanguage : English (US)\r\n\r\nAudio\r\nID : 1\r\nFormat : WMA\r\nFormat version : Version 2\r\nCodec ID : 161\r\nCodec ID/Info : Windows Media Audio\r\nDescription of the codec : Windows Media Audio V9 Standard - 48 kbps, 44 kHz, 16 bit, Stereo (CBR)\r\nDuration : 23mn 59s\r\nBit rate mode : Constant\r\nBit rate : 48.0 Kbps\r\nChannel(s) : 2 channels\r\nSampling rate : 44.1 KHz\r\nBit depth : 16 bits\r\nStream size : 8.24 MiB (2%)\r\nLanguage : English (US)\r\n\r\n