Tiffany Fox, Alina Li – Sleepover Aftermath

WowGirls Beata And Klara Satisfy MeMorgan Brooke - Very hot teen - Tease.Me

Posted in HD Porn, Pornstar, Sex Movies, Teen, Threesome | 13623 Views |


Rate this girl !!!




Tiffany Fox Alina Li – Sleepover Aftermath\r\n\r\nTiffany Fox Alina Li – Sleepover Aftermath\r\n\r\nTiffany Fox Alina Li – Sleepover Aftermath\r\n\r\nTiffany Fox Alina Li – Sleepover Aftermath\r\n\r\n\r\nFile: H:\HD TEENS PORN\DOWNLOAD\RYUSHARE\UPLOADED\KEEP2SHARE\Tiffany Fox.Alina Li – Sleepover Aftermath HDteenmania.mpg\r\nSize: 601712644 bytes (573.84 MiB), duration: 00:21:57, avg.bitrate: 3655 kb/s\r\nAudio: mp2, 44100 Hz, 2 channels, s16, 96 kb/s\r\nVideo: mpeg1video, yuv420p, 1280×720, 3500 kb/s, 29.97 fps(r)\r\nstep: 69 s; # tiles: 3×6, tile size: 300×168; total size: 900×1008\r\n0.96 s, 18.81 shots/s; output: C:/HD TEENS PORN\DOWNLOAD\RYUSHARE\UPLOADED\KEEP2SHARE\/Tiffany Fox.Alina Li – Sleepover Aftermath HDteenmania.tbme\r\n\r\n\r\n\r\n



DOWNLOAD

Keep2share.cc - Uploaded.net - Openload.co - Rapidu.net


http://ryushare.com/a186b947801/T1ff4ny.F0x.Sl33p0v3r.4ft3rm4th.rar
http://keep2share.cc/file/5273f6cc838db
http://ul.to/bpv1k1a3


Premium here:
uploaded.net
keep2share.cc
rapidu.net.cc

Teens related to Tiffany Fox, Alina Li – Sleepover Aftermath


Teenage Fuck Clips 1939 ryushare uploaded keep2share

Teenage Fuck Clips 1939

HD Porn Teen Sex Videos 2786 ryushare uploaded keep2share

HD Porn Teen Sex Videos 2786

Hot Teen Sex 225798 ryushare uploaded keep2share

Hot Teen Sex 225798

FirstAnalQuest Carmen Fox ryushare uploaded keep2share

FirstAnalQuest Carmen Fox

High Definition Movies on HD 1647 ryushare uploaded keep2share

High Definition Movies on HD 1647

xxx videos hd 1080p free download 226275 ryushare uploaded keep2share

xxx videos hd 1080p free download 226275

Hardcore Sex Hub 225938 ryushare uploaded keep2share

Hardcore Sex Hub 225938

sexy full movies hd pron ryushare uploaded keep2share

sexy full movies hd pron

HQ Sex Movies Download 1511 ryushare uploaded keep2share

HQ Sex Movies Download 1511

pron pictures fucked 226288 ryushare uploaded keep2share

pron pictures fucked 226288

Dunya – Dreams-HD ryushare uploaded keep2share

Dunya – Dreams-HD

HD Sex World Videos High Definition Free Porn 4540 ryushare uploaded keep2share

HD Sex World Videos High Definition Free Porn 4540

www 18 xxxvids com 226627 ryushare uploaded keep2share

www 18 xxxvids com 226627

HD Teen Sex Tube 1160 ryushare uploaded keep2share

HD Teen Sex Tube 1160

Hardcore Sex Hub 1665 ryushare uploaded keep2share

Hardcore Sex Hub 1665

Uploaded net porn XXX 225290 ryushare uploaded keep2share

Uploaded net porn XXX 225290

Teen Sex Porn Videos Free Nude Teens 2202 ryushare uploaded keep2share

Teen Sex Porn Videos Free Nude Teens 2202

xxx skymovi com ryushare uploaded keep2share

xxx skymovi com

Uploaded net porn XXX 224345 ryushare uploaded keep2share

Uploaded net porn XXX 224345

www dani daniels hd xxx video com 226136 ryushare uploaded keep2share

www dani daniels hd xxx video com 226136

Anabelle Pync – Anabelle’s sensual tease – 2014 ryushare uploaded keep2share

Anabelle Pync – Anabelle’s sensual tease – 2014

HD sex movies downloads 3974 ryushare uploaded keep2share

HD sex movies downloads 3974

Chelsea – First & Forever ryushare uploaded keep2share

Chelsea – First & Forever

baby hd mp4 deflortioan sex 226670 ryushare uploaded keep2share

baby hd mp4 deflortioan sex 226670

Hardcore Sex Hub 224794 ryushare uploaded keep2share

Hardcore Sex Hub 224794

The best Teen sex 4035 ryushare uploaded keep2share

The best Teen sex 4035

Teen Porn XXX Tube 1179 ryushare uploaded keep2share

Teen Porn XXX Tube 1179

Babes.com Linda Sweet, Susan Ayn, Victoria Daniels ryushare uploaded keep2share

Babes.com Linda Sweet, Susan Ayn, Victoria Daniels

Wow porn tube movies 224392 ryushare uploaded keep2share

Wow porn tube movies 224392

HD porn teen downloads 2511 ryushare uploaded keep2share

HD porn teen downloads 2511

x x x video mb4hd 226258 ryushare uploaded keep2share

x x x video mb4hd 226258

Alice – Newbie Paid for Taking a Cumshot ryushare uploaded keep2share

Alice – Newbie Paid for Taking a Cumshot

HD Porn Videos 4503 ryushare uploaded keep2share

HD Porn Videos 4503

College Teen Sex 225537 ryushare uploaded keep2share

College Teen Sex 225537

Report broken links / Post a comment

You must be logged in to post a comment.



General\r\nComplete name : H:HD TEENS PORNDOWNLOADRYUSHAREUPLOADEDKEEP2SHARE\Tiffany Fox.Alina Li - Sleepover Aftermath HDteenmania.mpg\r\nFormat : MPEG-PS\r\nFile size : 574 MiB\r\nDuration : 21mn 57s\r\nOverall bit rate mode : Variable\r\nOverall bit rate : 3 653 Kbps\r\n\r\nVideo\r\nID : 224 (0xE0)\r\nFormat : MPEG Video\r\nFormat version : Version 1\r\nFormat settings, BVOP : No\r\nFormat settings, Matrix : Custom\r\nFormat settings, GOP : Variable\r\nDuration : 21mn 57s\r\nBit rate mode : Variable\r\nBit rate : 3 500 Kbps\r\nWidth : 1 280 pixels\r\nHeight : 720 pixels\r\nDisplay aspect ratio : 16:9\r\nFrame rate : 29.970 fps\r\nColor space : YUV\r\nBit depth : 8 bits\r\nScan type : Progressive\r\nCompression mode : Lossy\r\nBits/(Pixel*Frame) : 0.127\r\nTime code of first frame : 00:00:00:00\r\nTime code source : Group of pictures header\r\nStream size : 547 MiB (95%)\r\n\r\nAudio\r\nID : 192 (0xC0)\r\nFormat : MPEG Audio\r\nFormat version : Version 1\r\nFormat profile : Layer 2\r\nDuration : 21mn 57s\r\nBit rate mode : Constant\r\nBit rate : 96.0 Kbps\r\nChannel(s) : 2 channels\r\nSampling rate : 44.1 KHz\r\nCompression mode : Lossy\r\nStream size : 15.1 MiB (3%)