The best Teen sex 3727

Free High Quality Sex Movies 3731Teen Porn XXX Tube 3723

Posted in Amateur, HD Porn, Sex Movies, Teen | 8916 Views |


Rate this girl !!!




\r\n\r\n



DOWNLOAD

Keep2share.cc - Uploaded.net - Openload.co - Rapidu.net


http://ul.to/5hp3xcj5/BRNG.Clw.mp4
http://fileom.com/uyix3htkosnd/BRNG.Clw.mp4.html
http://ryushare.com/6en46kbokynt/BRNG.Clw.mp4
http://k2s.cc/file/24e8211c46b70/BRNG.Clw.mp4


Premium here:
uploaded.net
keep2share.cc
rapidu.net.cc


Teens related to The best Teen sex 3727


www pussyHD picture ryushare uploaded keep2share

www pussyHD picture

Sweet Teen Porn – Young Porn Videos 224820 ryushare uploaded keep2share

Sweet Teen Porn – Young Porn Videos 224820

www hd video 18 xxx 226637 ryushare uploaded keep2share

www hd video 18 xxx 226637

www hdxxxfuck me 226303 ryushare uploaded keep2share

www hdxxxfuck me 226303

gina devine seks 226666 ryushare uploaded keep2share

gina devine seks 226666

sexxxxxxx mp 3 xxxhd 226194 ryushare uploaded keep2share

sexxxxxxx mp 3 xxxhd 226194

Creampie-Angels.com Licie ryushare uploaded keep2share

Creampie-Angels.com Licie

Free High Quality Sex Movies 225182 ryushare uploaded keep2share

Free High Quality Sex Movies 225182

Download young porn sex 224839 ryushare uploaded keep2share

Download young porn sex 224839

8 Teen XXX – Teen Sex 224358 ryushare uploaded keep2share

8 Teen XXX – Teen Sex 224358

Young Sex Movies 225490 ryushare uploaded keep2share

Young Sex Movies 225490

Nude Teens fucking hard 4199 ryushare uploaded keep2share

Nude Teens fucking hard 4199

Hd quality – Teen sex video 225851 ryushare uploaded keep2share

Hd quality – Teen sex video 225851

young xxx porn hd ryushare uploaded keep2share

young xxx porn hd

Teens in Porno young porn videos and free teen sex 224477 ryushare uploaded keep2share

Teens in Porno young porn videos and free teen sex 224477

Uploaded net porn 2834 ryushare uploaded keep2share

Uploaded net porn 2834

xnsexvids hd 1080 ryushare uploaded keep2share

xnsexvids hd 1080

8 Teen XXX – Teen Sex 1309 ryushare uploaded keep2share

8 Teen XXX – Teen Sex 1309

vergen xxx hd ryushare uploaded keep2share

vergen xxx hd

Wow porn tube movies 225396 ryushare uploaded keep2share

Wow porn tube movies 225396

Porn HD Sex HD Teen Sex 224962 ryushare uploaded keep2share

Porn HD Sex HD Teen Sex 224962

Young xxx 224169 ryushare uploaded keep2share

Young xxx 224169

Young XXX Tube Videos 1801 ryushare uploaded keep2share

Young XXX Tube Videos 1801

wow xxxvideoshd ryushare uploaded keep2share

wow xxxvideoshd

HD Sex World Videos High Definition Free Porn 1623 ryushare uploaded keep2share

HD Sex World Videos High Definition Free Porn 1623

school porno movies ryushare uploaded keep2share

school porno movies

Teen sex xxx hd 4489 ryushare uploaded keep2share

Teen sex xxx hd 4489

www x hd video dowanloding ryushare uploaded keep2share

www x hd video dowanloding

J. Joanna (Shoot It For Me / 15.12.13) ryushare uploaded keep2share

J. Joanna (Shoot It For Me / 15.12.13)

Free Young Porn Videos XXX Teen Porn 5208 ryushare uploaded keep2share

Free Young Porn Videos XXX Teen Porn 5208

Good Teen Tube Sexy Young Naked Girls Movies 225127 ryushare uploaded keep2share

Good Teen Tube Sexy Young Naked Girls Movies 225127

Hardcore sex videos in the high definition quality 223782 ryushare uploaded keep2share

Hardcore sex videos in the high definition quality 223782

Good Teen Tube Sexy Young Naked Girls Movies 224024 ryushare uploaded keep2share

Good Teen Tube Sexy Young Naked Girls Movies 224024

Hot Teen Sex HD videos 223872 ryushare uploaded keep2share

Hot Teen Sex HD videos 223872

sex bf movies hd com 226379 ryushare uploaded keep2share

sex bf movies hd com 226379

Report broken links / Post a comment

You must be logged in to post a comment.



General\r\nComplete name : D:hd pornstars teens ryushare.com uploaded.net keep2share.cc fileom.com streamcloud.eu allmyvideos.net ul.to download porn movies clips BRNG.Clw.mp4\r\nFormat : MPEG-4\r\nCodec ID : M4V \r\nFile size : 659 MiB\r\nDuration : 22mn 16s\r\nOverall bit rate mode : Variable\r\nOverall bit rate : 4 133 Kbps\r\nEncoded date : UTC 2013-02-25 16:20:23\r\nTagged date : UTC 2013-02-25 16:20:23\r\n\r\nVideo\r\nID : 1\r\nFormat : AVC\r\nFormat/Info : Advanced Video Codec\r\nFormat profile : [email protected]\r\nFormat settings, CABAC : Yes\r\nFormat settings, ReFrames : 2 frames\r\nCodec ID : avc1\r\nCodec ID/Info : Advanced Video Coding\r\nDuration : 22mn 16s\r\nBit rate mode : Variable\r\nBit rate : 4 000 Kbps\r\nMaximum bit rate : 4 400 Kbps\r\nWidth : 1 280 pixels\r\nHeight : 720 pixels\r\nDisplay aspect ratio : 16:9\r\nFrame rate mode : Constant\r\nFrame rate : 29.970 fps\r\nColor space : YUV\r\nChroma subsampling : 4:2:0\r\nBit depth : 8 bits\r\nScan type : Progressive\r\nBits/(Pixel*Frame) : 0.145\r\nStream size : 637 MiB (97%)\r\nEncoded date : UTC 2013-02-25 16:20:23\r\nTagged date : UTC 2013-02-25 16:20:23\r\n\r\nAudio\r\nID : 2\r\nFormat : AAC\r\nFormat/Info : Advanced Audio Codec\r\nFormat profile : LC\r\nCodec ID : 40\r\nDuration : 22mn 16s\r\nDuration_FirstFrame : 23ms\r\nBit rate mode : Variable\r\nBit rate : 128 Kbps\r\nMaximum bit rate : 132 Kbps\r\nChannel(s) : 2 channels\r\nChannel positions : Front: L R\r\nSampling rate : 44.1 KHz\r\nCompression mode : Lossy\r\nStream size : 20.0 MiB (3%)\r\nEncoded date : UTC 2013-02-25 16:20:23\r\nTagged date : UTC 2013-02-25 16:20:23\r\n\r\nhd pornstars teens ryushare.com uploaded.net keep2share.cc fileom.com streamcloud.eu allmyvideos.net ul.to download porn movies clips