Teenies Videos – Teen Porn, Teen Sex, XXX Free Videos 2114

8 Teen XXX - Teen Sex 2117The best Teen sex 2111

Posted in HD Porn, Pornstar, Sex Movies, Teen | 19442 Views |


Rate this girl !!!




\r\n\r\n2.jpeg\r\n\r\n Link(586 Mb||12:15||1920*1080||MP4)



DOWNLOAD

Keep2share.cc - Uploaded.net - Openload.co - Rapidu.net


http://k2s.cc/file/98677e7382c04/FRMDBby.mp4
http://ryushare.com/uogvhtd5i3v3/FRMDBby.mp4
http://ul.to/zz9qlkff/FRMDBby.mp4


Premium here:
uploaded.net
keep2share.cc
rapidu.net.cc

Teens related to Teenies Videos – Teen Porn, Teen Sex, XXX Free Videos 2114


www HD xxxvideos downlaod com ryushare uploaded keep2share

www HD xxxvideos downlaod com

Wow Porn Movies download) 225419 ryushare uploaded keep2share

Wow Porn Movies download) 225419

Jessie Volt (K POV) B ryushare uploaded keep2share

Jessie Volt (K POV) B

Connie Stay by my Woman – YoungLegalPorn ryushare uploaded keep2share

Connie Stay by my Woman – YoungLegalPorn

Porn HD Sex HD Teen Sex 224857 ryushare uploaded keep2share

Porn HD Sex HD Teen Sex 224857

www hd model sex telars hd com 226682 ryushare uploaded keep2share

www hd model sex telars hd com 226682

18 Years Old Girl – Episode 279 ryushare uploaded keep2share

18 Years Old Girl – Episode 279

Young Virgin Pussy Teen Fuck Tube 4173 ryushare uploaded keep2share

Young Virgin Pussy Teen Fuck Tube 4173

Wow porn hd downloads 225829 ryushare uploaded keep2share

Wow porn hd downloads 225829

Real Bushy Beavers 18 – Timea Bella ryushare uploaded keep2share

Real Bushy Beavers 18 – Timea Bella

Sweet Teen Porn – Young Porn Videos 1653 ryushare uploaded keep2share

Sweet Teen Porn – Young Porn Videos 1653

Young XXX Tube Videos 1801 ryushare uploaded keep2share

Young XXX Tube Videos 1801

Free High Quality Sex Movies 4635 ryushare uploaded keep2share

Free High Quality Sex Movies 4635

Free High Quality Sex Movies 223962 ryushare uploaded keep2share

Free High Quality Sex Movies 223962

Sweet Teen Porn – Young Porn Videos 3539 ryushare uploaded keep2share

Sweet Teen Porn – Young Porn Videos 3539

Tube Young Sex 4191 ryushare uploaded keep2share

Tube Young Sex 4191

High Definition Movies on HD 225408 ryushare uploaded keep2share

High Definition Movies on HD 225408

Amarna Miller & Juan Lucho – Que Es La Pasion ryushare uploaded keep2share

Amarna Miller & Juan Lucho – Que Es La Pasion

Young Sex Movies 225934 ryushare uploaded keep2share

Young Sex Movies 225934

Young XXX Tube Videos 3884 ryushare uploaded keep2share

Young XXX Tube Videos 3884

Jassie Gold – Hardcore Fucking ryushare uploaded keep2share

Jassie Gold – Hardcore Fucking

Hot download sex girls movies 225877 ryushare uploaded keep2share

Hot download sex girls movies 225877

Teen Sex Movies 224085 ryushare uploaded keep2share

Teen Sex Movies 224085

download hd fucking video full 226558 ryushare uploaded keep2share

download hd fucking video full 226558

Tight Snatch Hunter – [WowGirls.com] ryushare uploaded keep2share

Tight Snatch Hunter – [WowGirls.com]

Sweet Teen Porn – Young Porn Videos 224592 ryushare uploaded keep2share

Sweet Teen Porn – Young Porn Videos 224592

HD Porn Teen Sex Videos 1629 ryushare uploaded keep2share

HD Porn Teen Sex Videos 1629

Porno movies young teens lesbian 223864 ryushare uploaded keep2share

Porno movies young teens lesbian 223864

virgin girl sex hd free 226524 ryushare uploaded keep2share

virgin girl sex hd free 226524

x art angelica susie heidi orgy 226351 ryushare uploaded keep2share

x art angelica susie heidi orgy 226351

download free xxx sex hd 226387 ryushare uploaded keep2share

download free xxx sex hd 226387

Russian amateur – Home Sex ryushare uploaded keep2share

Russian amateur – Home Sex

WowGirls.com Nomi, Virginie – Madly In Love ryushare uploaded keep2share

WowGirls.com Nomi, Virginie – Madly In Love

Teen Sex Movies Young Porn Tube Vids 225957 ryushare uploaded keep2share

Teen Sex Movies Young Porn Tube Vids 225957

First time Sexual Films 18 sex xxx 4718 ryushare uploaded keep2share

First time Sexual Films 18 sex xxx 4718

Report broken links / Post a comment

You must be logged in to post a comment.



General\r\nComplete name : D:HD Teens Download Porn Sex clips movies TubeFRMDBby.mp4\r\nFormat : MPEG-4\r\nFormat profile : Base Media\r\nCodec ID : isom\r\nFile size : 586 MiB\r\nDuration : 12mn 15s\r\nOverall bit rate mode : Variable\r\nOverall bit rate : 6 690 Kbps\r\nWriting application : Lavf54.22.100\r\n\r\nVideo\r\nID : 1\r\nFormat : MPEG-4 Visual\r\nFormat profile : [email protected]\r\nFormat settings, BVOP : No\r\nFormat settings, QPel : No\r\nFormat settings, GMC : No warppoints\r\nFormat settings, Matrix : Default (H.263)\r\nCodec ID : 20\r\nDuration : 12mn 15s\r\nBit rate mode : Variable\r\nBit rate : 6 559 Kbps\r\nMaximum bit rate : 8 500 Kbps\r\nWidth : 1 920 pixels\r\nHeight : 1 080 pixels\r\nDisplay aspect ratio : 16:9\r\nFrame rate mode : Constant\r\nFrame rate : 23.976 fps\r\nColor space : YUV\r\nChroma subsampling : 4:2:0\r\nBit depth : 8 bits\r\nScan type : Progressive\r\nCompression mode : Lossy\r\nBits/(Pixel*Frame) : 0.132\r\nStream size : 575 MiB (98%)\r\nWriting library : Lavc54.46.100\r\nLanguage : English\r\n\r\nAudio\r\nID : 2\r\nFormat : AAC\r\nFormat/Info : Advanced Audio Codec\r\nFormat profile : LC\r\nCodec ID : 40\r\nDuration : 12mn 15s\r\nDuration_LastFrame : -1ms\r\nBit rate mode : Variable\r\nBit rate : 126 Kbps\r\nMaximum bit rate : 128 Kbps\r\nChannel(s) : 2 channels\r\nChannel positions : Front: L R\r\nSampling rate : 48.0 KHz\r\nCompression mode : Lossy\r\nStream size : 11.1 MiB (2%)\r\nLanguage : English\r\n\r\n