Teenies Videos – Teen Porn, Teen Sex, XXX Free Videos 1828

Free Young Porn Videos XXX Teen Porn 1836Nude Teens fucking hard 1825

Posted in Amateur, HD Porn, Sex Movies, Teen | 37032 Views |


Rate this girl !!!




\r\n\r\n\r\n\r\n\r\nhttp://img20.imagetwist.com/i/05282/83namc2bjmvx.jpeg\r\n\r\n Link(425 Mb||21:35||1280*720||MP4)



DOWNLOAD

Keep2share.cc - Uploaded.net - Openload.co - Rapidu.net


http://keep2share.cc/file/07f8206eea48d
http://ul.to/iuks6kmh
http://ryushare.com/uo0p1869leuf/YNGCRKsn.rar


Premium here:
uploaded.net
keep2share.cc
rapidu.net.cc

Teens related to Teenies Videos – Teen Porn, Teen Sex, XXX Free Videos 1828


Teen Sex Movies Young Porn Tube Vids 224457 ryushare uploaded keep2share

Teen Sex Movies Young Porn Tube Vids 224457

www xxx videos dawnload com ryushare uploaded keep2share

www xxx videos dawnload com

Teen Sex Movies 223950 ryushare uploaded keep2share

Teen Sex Movies 223950

Sara Luvv – Dorm Room Invitation ryushare uploaded keep2share

Sara Luvv – Dorm Room Invitation

1080p pornstar 226032 ryushare uploaded keep2share

1080p pornstar 226032

High Definition Movies on HD Teen Porn XXX Tube 4650 ryushare uploaded keep2share

High Definition Movies on HD Teen Porn XXX Tube 4650

me bbxxxhd 226343 ryushare uploaded keep2share

me bbxxxhd 226343

Evening at home with brunette ryushare uploaded keep2share

Evening at home with brunette

Anabelle Pync – Anabelle’s sensual tease – 2014 ryushare uploaded keep2share

Anabelle Pync – Anabelle’s sensual tease – 2014

Young legal porn clips 3535 ryushare uploaded keep2share

Young legal porn clips 3535

HD Porn Videos 4556 ryushare uploaded keep2share

HD Porn Videos 4556

Hardcore Sex Hub 4013 ryushare uploaded keep2share

Hardcore Sex Hub 4013

www 89xxxxxx in 226641 ryushare uploaded keep2share

www 89xxxxxx in 226641

Innocent Young Blonde Gets Fucked For The First Time on Cam ryushare uploaded keep2share

Innocent Young Blonde Gets Fucked For The First Time on Cam

Free High Quality Sex Movies 4635 ryushare uploaded keep2share

Free High Quality Sex Movies 4635

Beautiful model ryushare uploaded keep2share

Beautiful model

Wow Girls Porn Clips download 223967 ryushare uploaded keep2share

Wow Girls Porn Clips download 223967

HD Porn Teen Sex Videos 4070 ryushare uploaded keep2share

HD Porn Teen Sex Videos 4070

free high resolution porn movies 226717 ryushare uploaded keep2share

free high resolution porn movies 226717

cina video hdxxx 226321 ryushare uploaded keep2share

cina video hdxxx 226321

[PublicAgent.com] Caroline Ardolino – Milf gets fucked hard for cash ryushare uploaded keep2share

[PublicAgent.com] Caroline Ardolino – Milf gets fucked hard for cash

Marina – YoungLibertines ryushare uploaded keep2share

Marina – YoungLibertines

HD sex movies downloads 2947 ryushare uploaded keep2share

HD sex movies downloads 2947

Teenage Fuck Clips 225321 ryushare uploaded keep2share

Teenage Fuck Clips 225321

download 1080p xxx porn video 226662 ryushare uploaded keep2share

download 1080p xxx porn video 226662

TeenyLovers – Zlata ryushare uploaded keep2share

TeenyLovers – Zlata

hard fuck hd image download 226631 ryushare uploaded keep2share

hard fuck hd image download 226631

vrgen saxa vidoes hd 226731 ryushare uploaded keep2share

vrgen saxa vidoes hd 226731

Porno movies young teens lesbian 223864 ryushare uploaded keep2share

Porno movies young teens lesbian 223864

Porn HD Sex HD Teen Sex 4153 ryushare uploaded keep2share

Porn HD Sex HD Teen Sex 4153

The best Teen sex 225173 ryushare uploaded keep2share

The best Teen sex 225173

Teenies Videos – Teen Porn, Teen Sex, XXX Free Videos 5201 ryushare uploaded keep2share

Teenies Videos – Teen Porn, Teen Sex, XXX Free Videos 5201

Alyona – No Mercy For Your Ass ryushare uploaded keep2share

Alyona – No Mercy For Your Ass

First time Sexual Films 18 sex xxx 3689 ryushare uploaded keep2share

First time Sexual Films 18 sex xxx 3689

best teen sex mobi 226301 ryushare uploaded keep2share

best teen sex mobi 226301

Report broken links / Post a comment

You must be logged in to post a comment.



General\r\nComplete name : D:HD Teens Download Porn Sex clips movies Tube.xxxYNGCRKsnYNGCRKsn.mp4\r\nFormat : MPEG-4\r\nFormat profile : Base Media\r\nCodec ID : isom\r\nFile size : 425 MiB\r\nDuration : 21mn 35s\r\nOverall bit rate : 2 752 Kbps\r\nWriting application : Lavf54.22.101\r\n\r\nVideo\r\nID : 1\r\nFormat : AVC\r\nFormat/Info : Advanced Video Codec\r\nFormat profile : [email protected]\r\nFormat settings, CABAC : Yes\r\nFormat settings, ReFrames : 4 frames\r\nCodec ID : avc1\r\nCodec ID/Info : Advanced Video Coding\r\nDuration : 21mn 35s\r\nBit rate : 2 617 Kbps\r\nWidth : 1 280 pixels\r\nHeight : 720 pixels\r\nDisplay aspect ratio : 16:9\r\nFrame rate mode : Constant\r\nFrame rate : 25.000 fps\r\nColor space : YUV\r\nChroma subsampling : 4:2:0\r\nBit depth : 8 bits\r\nScan type : Progressive\r\nBits/(Pixel*Frame) : 0.114\r\nStream size : 404 MiB (95%)\r\nWriting library : x264 core 125\r\nEncoding settings : cabac=1 / ref=3 / deblock=1:0:0 / analyse=0x3:0x113 / me=hex / subme=7 / psy=1 / psy_rd=1.00:0.00 / mixed_ref=1 / me_range=16 / chroma_me=1 / trellis=0 / 8x8dct=1 / cqm=0 / deadzone=21,11 / fast_pskip=1 / chroma_qp_offset=-2 / threads=8 / lookahead_threads=1 / sliced_threads=0 / nr=0 / decimate=1 / interlaced=0 / bluray_compat=0 / constrained_intra=0 / bframes=8 / b_pyramid=2 / b_adapt=1 / b_bias=0 / direct=1 / weightb=1 / open_gop=0 / weightp=2 / keyint=50 / keyint_min=5 / scenecut=40 / intra_refresh=0 / rc_lookahead=40 / rc=crf / mbtree=1 / crf=20.0 / qcomp=0.60 / qpmin=0 / qpmax=69 / qpstep=4 / ip_ratio=1.40 / aq=1:1.00\r\nLanguage : Russian\r\n\r\nAudio\r\nID : 2\r\nFormat : AAC\r\nFormat/Info : Advanced Audio Codec\r\nFormat profile : LC\r\nCodec ID : 40\r\nDuration : 21mn 35s\r\nBit rate mode : Constant\r\nBit rate : 128 Kbps\r\nChannel(s) : 2 channels\r\nChannel positions : Front: L R\r\nSampling rate : 44.1 KHz\r\nCompression mode : Lossy\r\nStream size : 19.8 MiB (5%)\r\nLanguage : Russian\r\n\r\n