Teenage Fuck Clips 1735

Teen Sex Videos Tube Movies 1740Teen Sex Movies Young Porn Tube Vids 1731

Posted in Amateur, HD Porn, Sex Movies, Teen | 4135 Views |


Rate this girl !!!




\r\n\r\n\r\n\r\n \r\n\r\n \r\n\r\n \r\n\r\n\r\n\r\n \r\n\r\n Link(564 Mb||19:08||1280*720||MP4)



DOWNLOAD

Keep2share.cc - Uploaded.net - Openload.co - Rapidu.net


http://keep2share.cc/file/f3695fada678f
http://ryushare.com/hzdq7zabwal6/SRKSTGld.rar
http://ul.to/v7fmu68o


Premium here:
uploaded.net
keep2share.cc
rapidu.net.cc


Teens related to Teenage Fuck Clips 1735


sexHD videos mkv ryushare uploaded keep2share

sexHD videos mkv

Nude Teens fucking hard 5262 ryushare uploaded keep2share

Nude Teens fucking hard 5262

Susie – Body Language ryushare uploaded keep2share

Susie – Body Language

Two Teasing Tongues 10 – A ryushare uploaded keep2share

Two Teasing Tongues 10 – A

Teen porn xxx 225068 ryushare uploaded keep2share

Teen porn xxx 225068

WowGirls.com Vanda – The pleasure Is All Mine ryushare uploaded keep2share

WowGirls.com Vanda – The pleasure Is All Mine

Porn with gorgeous redhead ryushare uploaded keep2share

Porn with gorgeous redhead

The best Teen sex 225598 ryushare uploaded keep2share

The best Teen sex 225598

Teen Sex Movies 223947 ryushare uploaded keep2share

Teen Sex Movies 223947

Teens in Porno young porn videos and free teen sex 224477 ryushare uploaded keep2share

Teens in Porno young porn videos and free teen sex 224477

Hd young videos 1610 ryushare uploaded keep2share

Hd young videos 1610

HD Porn Teen Sex Videos 224669 ryushare uploaded keep2share

HD Porn Teen Sex Videos 224669

Adult Hardcore XXX Sex Videos 5707 ryushare uploaded keep2share

Adult Hardcore XXX Sex Videos 5707

Free Young Porn Videos XXX Teen Porn 5149 ryushare uploaded keep2share

Free Young Porn Videos XXX Teen Porn 5149

HD Teen Sex Tube 4748 ryushare uploaded keep2share

HD Teen Sex Tube 4748

teens handjob porn ryushare uploaded keep2share

teens handjob porn

Young XXX Tube Videos 1801 ryushare uploaded keep2share

Young XXX Tube Videos 1801

Teen Porn XXX Tube 1179 ryushare uploaded keep2share

Teen Porn XXX Tube 1179

www full hd video fucking com ryushare uploaded keep2share

www full hd video fucking com

Teen 18 Porn XXX Clips Naked 2154 ryushare uploaded keep2share

Teen 18 Porn XXX Clips Naked 2154

Sweet Teen Porn – Young Porn Videos 224239 ryushare uploaded keep2share

Sweet Teen Porn – Young Porn Videos 224239

Katie Jordin – Morning Affair ryushare uploaded keep2share

Katie Jordin – Morning Affair

poran sacool 226118 ryushare uploaded keep2share

poran sacool 226118

Movies Young legal porn 225237 ryushare uploaded keep2share

Movies Young legal porn 225237

Aiko Mai, Angellina – Sweet Like Candy ryushare uploaded keep2share

Aiko Mai, Angellina – Sweet Like Candy

Watch Teen Sex Videos HD 224429 ryushare uploaded keep2share

Watch Teen Sex Videos HD 224429

Free High Quality Sex Movies 1901 ryushare uploaded keep2share

Free High Quality Sex Movies 1901

sex hd hq download 226383 ryushare uploaded keep2share

sex hd hq download 226383

Xxxbabez teen video ryushare uploaded keep2share

Xxxbabez teen video

Young xxx 224169 ryushare uploaded keep2share

Young xxx 224169

Good Teen Tube Sexy Young Naked Girls Movies 1427 ryushare uploaded keep2share

Good Teen Tube Sexy Young Naked Girls Movies 1427

Daisy Summers (Don’t Tell Your Sister Seriously) ryushare uploaded keep2share

Daisy Summers (Don’t Tell Your Sister Seriously)

[WowPorn.com] Daphne & Ria Sun (Thorough Fingers / ryushare uploaded keep2share

[WowPorn.com] Daphne & Ria Sun (Thorough Fingers /

Teenies Videos – Teen Porn, Teen Sex, XXX Free Videos 224066 ryushare uploaded keep2share

Teenies Videos – Teen Porn, Teen Sex, XXX Free Videos 224066

Watch Teen Sex Videos HD 4989 ryushare uploaded keep2share

Watch Teen Sex Videos HD 4989

Report broken links / Post a comment

You must be logged in to post a comment.



General\r\nComplete name : D:HD Teens Download Porn Sex clips movies Tube.xxxSRKSTGldSRKSTGld.mp4\r\nFormat : MPEG-4\r\nFormat profile : Base Media\r\nCodec ID : isom\r\nFile size : 564 MiB\r\nDuration : 19mn 8s\r\nOverall bit rate mode : Variable\r\nOverall bit rate : 4 118 Kbps\r\nEncoded date : UTC 2014-01-12 19:37:12\r\nTagged date : UTC 2014-01-12 19:37:12\r\nWriting application : Lavf53.32.100\r\n\r\nVideo\r\nID : 1\r\nFormat : AVC\r\nFormat/Info : Advanced Video Codec\r\nFormat profile : [email protected]\r\nFormat settings, CABAC : Yes\r\nFormat settings, ReFrames : 5 frames\r\nCodec ID : avc1\r\nCodec ID/Info : Advanced Video Coding\r\nDuration : 19mn 8s\r\nBit rate : 4 000 Kbps\r\nWidth : 1 280 pixels\r\nHeight : 720 pixels\r\nDisplay aspect ratio : 16:9\r\nFrame rate mode : Constant\r\nFrame rate : 25.000 fps\r\nColor space : YUV\r\nChroma subsampling : 4:2:0\r\nBit depth : 8 bits\r\nScan type : Progressive\r\nBits/(Pixel*Frame) : 0.174\r\nStream size : 547 MiB (97%)\r\nWriting library : x264 core 129 r2245 bc13772\r\nEncoding settings : cabac=1 / ref=5 / deblock=1:0:0 / analyse=0x3:0x113 / me=umh / subme=8 / psy=0 / mixed_ref=1 / me_range=16 / chroma_me=1 / trellis=1 / 8x8dct=1 / cqm=0 / deadzone=21,11 / fast_pskip=1 / chroma_qp_offset=0 / threads=36 / lookahead_threads=6 / sliced_threads=0 / nr=0 / decimate=1 / interlaced=0 / bluray_compat=0 / constrained_intra=0 / bframes=3 / b_pyramid=2 / b_adapt=2 / b_bias=0 / direct=3 / weightb=1 / open_gop=0 / weightp=2 / keyint=250 / keyint_min=25 / scenecut=40 / intra_refresh=0 / rc=2pass / mbtree=0 / bitrate=4000 / ratetol=1.0 / qcomp=0.60 / qpmin=10 / qpmax=51 / qpstep=4 / cplxblur=20.0 / qblur=0.5 / ip_ratio=1.40 / pb_ratio=1.30 / aq=1:1.00\r\nLanguage : English\r\nEncoded date : UTC 2014-01-12 19:37:12\r\nTagged date : UTC 2014-01-12 19:37:12\r\n\r\nAudio\r\nID : 2\r\nFormat : AAC\r\nFormat/Info : Advanced Audio Codec\r\nFormat profile : LC\r\nCodec ID : 40\r\nDuration : 19mn 8s\r\nBit rate mode : Variable\r\nBit rate : 115 Kbps\r\nMaximum bit rate : 128 Kbps\r\nChannel(s) : 2 channels\r\nChannel positions : Front: L R\r\nSampling rate : 44.1 KHz\r\nCompression mode : Lossy\r\nStream size : 15.7 MiB (3%)\r\nLanguage : English\r\nEncoded date : UTC 2014-01-12 19:37:12\r\nTagged date : UTC 2014-01-12 19:37:12\r\n\r\n