Teen Tits Tube, Young Girls Porn Videos 1565

Free Porn Videos Xxx Movies Pussy Porn 1568Hd quality - Teen sex video 1560

Posted in HD Porn, Pornstar, Sex Movies, Teen | 12383 Views |


Rate this girl !!!




\r\n\r\nhttp://img102.imagetwist.com/i/05235/oz1uu83t83bs.jpeg\r\n\r\n Link(402 Mb||17:32||1280*720||MP4)



DOWNLOAD

Keep2share.cc - Uploaded.net - Openload.co - Rapidu.net


http://keep2share.cc/file/61360e51c14d7
http://ryushare.com/p1veh3269b2v/JYMCGThr.rar
http://ul.to/37qn7i8d


Premium here:
uploaded.net
keep2share.cc
rapidu.net.cc


Teens related to Teen Tits Tube, Young Girls Porn Videos 1565


Veronika – Awesome sex with hot teeny ryushare uploaded keep2share

Veronika – Awesome sex with hot teeny

Norma – Welcome to fuck her for cash ryushare uploaded keep2share

Norma – Welcome to fuck her for cash

xxxsexHDvieo 226349 ryushare uploaded keep2share

xxxsexHDvieo 226349

Klixen Cindy Hope & Cipriana ryushare uploaded keep2share

Klixen Cindy Hope & Cipriana

HD Sex World Videos High Definition Free Porn 3501 ryushare uploaded keep2share

HD Sex World Videos High Definition Free Porn 3501

sex vedios yang grls end boys ryushare uploaded keep2share

sex vedios yang grls end boys

Hardcore Sex Hub 1963 ryushare uploaded keep2share

Hardcore Sex Hub 1963

High Definition Movies on HD 1766 ryushare uploaded keep2share

High Definition Movies on HD 1766

HD Teen Sex Tube 225487 ryushare uploaded keep2share

HD Teen Sex Tube 225487

Janette – Today Was Amazing ryushare uploaded keep2share

Janette – Today Was Amazing

Wow porn hd downloads 225831 ryushare uploaded keep2share

Wow porn hd downloads 225831

Sweet Teen Porn – Young Porn Videos 3834 ryushare uploaded keep2share

Sweet Teen Porn – Young Porn Videos 3834

HD Porn Videos 2640 ryushare uploaded keep2share

HD Porn Videos 2640

www xxx com vadio ryushare uploaded keep2share

www xxx com vadio

Porn HD Sex HD Teen Sex 224962 ryushare uploaded keep2share

Porn HD Sex HD Teen Sex 224962

Russian Girls Cumshot Compilation ryushare uploaded keep2share

Russian Girls Cumshot Compilation

www first time hdsex com ryushare uploaded keep2share

www first time hdsex com

Silvie Luca – Give And Take ryushare uploaded keep2share

Silvie Luca – Give And Take

First time Sexual Films 18 sex xxx 225815 ryushare uploaded keep2share

First time Sexual Films 18 sex xxx 225815

download free 720 porn videos ryushare uploaded keep2share

download free 720 porn videos

Teen Porn XXX Tube 224730 ryushare uploaded keep2share

Teen Porn XXX Tube 224730

First time Sexual Films 18 sex xxx 5336 ryushare uploaded keep2share

First time Sexual Films 18 sex xxx 5336

[RylskyArt.com] Welesa Wil – Grenarz ryushare uploaded keep2share

[RylskyArt.com] Welesa Wil – Grenarz

Sex Teens porn movies 2846 ryushare uploaded keep2share

Sex Teens porn movies 2846

Xxx comsexxx 226198 ryushare uploaded keep2share

Xxx comsexxx 226198

Tracy Smile – Soldier ryushare uploaded keep2share

Tracy Smile – Soldier

EuroSexParties Tiana And Beata Undine Time For Playing ryushare uploaded keep2share

EuroSexParties Tiana And Beata Undine Time For Playing

Kaylee Haze – Wet Pussy Play ryushare uploaded keep2share

Kaylee Haze – Wet Pussy Play

Teen Porn XXX Tube 225214 ryushare uploaded keep2share

Teen Porn XXX Tube 225214

Hot xxx move download 225987 ryushare uploaded keep2share

Hot xxx move download 225987

Watch Teen Sex Videos HD 3515 ryushare uploaded keep2share

Watch Teen Sex Videos HD 3515

Sweet Teen Porn – Young Porn Videos 224227 ryushare uploaded keep2share

Sweet Teen Porn – Young Porn Videos 224227

handjob porn mp4 226429 ryushare uploaded keep2share

handjob porn mp4 226429

Hot download sex girls movies 225819 ryushare uploaded keep2share

Hot download sex girls movies 225819

Teen Porn XXX Tube 1179 ryushare uploaded keep2share

Teen Porn XXX Tube 1179

Report broken links / Post a comment

You must be logged in to post a comment.



General\r\nComplete name : D:HD Teens Download Porn Sex clips movies Tube.xxxJYMCGThrJYMCGThr.mp4\r\nFormat : MPEG-4\r\nFormat profile : Base Media\r\nCodec ID : isom\r\nFile size : 402 MiB\r\nDuration : 17mn 32s\r\nOverall bit rate mode : Variable\r\nOverall bit rate : 3 202 Kbps\r\nEncoded date : UTC 2013-09-25 22:06:37\r\nTagged date : UTC 2013-09-25 22:06:37\r\n\r\nVideo\r\nID : 1\r\nFormat : AVC\r\nFormat/Info : Advanced Video Codec\r\nFormat profile : [email protected]\r\nFormat settings, CABAC : No\r\nFormat settings, ReFrames : 3 frames\r\nCodec ID : avc1\r\nCodec ID/Info : Advanced Video Coding\r\nDuration : 17mn 32s\r\nBit rate : 3 072 Kbps\r\nMaximum bit rate : 7 839 Kbps\r\nWidth : 1 280 pixels\r\nHeight : 720 pixels\r\nDisplay aspect ratio : 16:9\r\nFrame rate mode : Constant\r\nFrame rate : 25.000 fps\r\nColor space : YUV\r\nChroma subsampling : 4:2:0\r\nBit depth : 8 bits\r\nScan type : Progressive\r\nBits/(Pixel*Frame) : 0.133\r\nStream size : 385 MiB (96%)\r\nWriting library : Zencoder Video Encoding System\r\nEncoded date : UTC 2013-09-25 21:52:55\r\nTagged date : UTC 2013-09-25 22:06:39\r\n\r\nAudio\r\nID : 2\r\nFormat : AAC\r\nFormat/Info : Advanced Audio Codec\r\nFormat profile : LC\r\nCodec ID : 40\r\nDuration : 17mn 32s\r\nBit rate mode : Variable\r\nBit rate : 128 Kbps\r\nMaximum bit rate : 139 Kbps\r\nChannel(s) : 2 channels\r\nChannel positions : Front: L R\r\nSampling rate : 48.0 KHz\r\nCompression mode : Lossy\r\nStream size : 16.1 MiB (4%)\r\nEncoded date : UTC 2013-09-25 22:06:38\r\nTagged date : UTC 2013-09-25 22:06:39\r\n\r\n