Teen Sex Videos Tube Movies 3048

Teens in Porno young porn videos and free teen sex 3051Nude Teens fucking hard 3040

Posted in HD Porn, Pornstar, Sex Movies, Teen | 4660 Views |


Rate this girl !!!




\r\n2.jpeg\r\n\r\nLink(435 Mb||20:33||1280*720||MP4)



DOWNLOAD

Keep2share.cc - Uploaded.net - Openload.co - Rapidu.net


http://k2s.cc/file/df9aa4199ea1e/SPNDRStp.mp4
http://ryushare.com/ns7h5zx9k8wk/SPNDRStp.mp4
http://ul.to/ma2xe1xf/SPNDRStp.mp4


Premium here:
uploaded.net
keep2share.cc
rapidu.net.cc


Teens related to Teen Sex Videos Tube Movies 3048


Hd quality – Teen sex video 223701 ryushare uploaded keep2share

Hd quality – Teen sex video 223701

HD sex movies downloads 2913 ryushare uploaded keep2share

HD sex movies downloads 2913

Teen Sex Movies 1769 ryushare uploaded keep2share

Teen Sex Movies 1769

Teen Sex Movies 3822 ryushare uploaded keep2share

Teen Sex Movies 3822

Teen Sex Porn Videos Free Nude Teens 5135 ryushare uploaded keep2share

Teen Sex Porn Videos Free Nude Teens 5135

Hd quality – Teen sex video 1560 ryushare uploaded keep2share

Hd quality – Teen sex video 1560

Hd young videos 3698 ryushare uploaded keep2share

Hd young videos 3698

Young Virgin Pussy Teen Fuck Tube 1905 ryushare uploaded keep2share

Young Virgin Pussy Teen Fuck Tube 1905

[Castingcouch-X.com] Alex Tanner ryushare uploaded keep2share

[Castingcouch-X.com] Alex Tanner

teen 12 porn images 226585 ryushare uploaded keep2share

teen 12 porn images 226585

HD Teen Sex Tube 1330 ryushare uploaded keep2share

HD Teen Sex Tube 1330

www sxc a2z hd ryushare uploaded keep2share

www sxc a2z hd

[PornFidelity.com] Alix Lynx (Poolguy / 2016-12-02) [2016 г., Deep Throat, Swallow, Big Tits, All Sex, 1080p] ryushare uploaded keep2share

[PornFidelity.com] Alix Lynx (Poolguy / 2016-12-02) [2016 г., Deep Throat, Swallow, Big Tits, All Sex, 1080p]

www hd brazzers sex in com 226593 ryushare uploaded keep2share

www hd brazzers sex in com 226593

Teen Sex Movies 1772 ryushare uploaded keep2share

Teen Sex Movies 1772

High Definition Movies on HD 224755 ryushare uploaded keep2share

High Definition Movies on HD 224755

Teen Sex Movies 1891 ryushare uploaded keep2share

Teen Sex Movies 1891

Uploaded net porn 2517 ryushare uploaded keep2share

Uploaded net porn 2517

xxx hq sexy vedioes 226528 ryushare uploaded keep2share

xxx hq sexy vedioes 226528

Tube xxx 224727 ryushare uploaded keep2share

Tube xxx 224727

Free High Quality Sex Movies 3418 ryushare uploaded keep2share

Free High Quality Sex Movies 3418

K Craving Lips 3 – B ryushare uploaded keep2share

K Craving Lips 3 – B

Young teens tube hot girls free porn video 225076 ryushare uploaded keep2share

Young teens tube hot girls free porn video 225076

Hot Teen Sex 224365 ryushare uploaded keep2share

Hot Teen Sex 224365

gibitube com porn 226071 ryushare uploaded keep2share

gibitube com porn 226071

HD Teen Sex Tube 223714 ryushare uploaded keep2share

HD Teen Sex Tube 223714

Good Teen Tube Sexy Young Naked Girls Movies 224884 ryushare uploaded keep2share

Good Teen Tube Sexy Young Naked Girls Movies 224884

Teen Sex Videos Tube Movies 224560 ryushare uploaded keep2share

Teen Sex Videos Tube Movies 224560

Www hd xvideos download in 225992 ryushare uploaded keep2share

Www hd xvideos download in 225992

Nubiles – sexual intercourse ryushare uploaded keep2share

Nubiles – sexual intercourse

sexHD videos mkv ryushare uploaded keep2share

sexHD videos mkv

Kennedy Leigh – Out With A Bang ryushare uploaded keep2share

Kennedy Leigh – Out With A Bang

low quality of sex video 226074 ryushare uploaded keep2share

low quality of sex video 226074

Hot download sex girls movies 225582 ryushare uploaded keep2share

Hot download sex girls movies 225582

Nude Teens fucking hard 223931 ryushare uploaded keep2share

Nude Teens fucking hard 223931

Report broken links / Post a comment

You must be logged in to post a comment.



General\r\nComplete name : D:HD Porn Teens Sex download movies tube online tubeSPNDRStp.mp4\r\nFormat : MPEG-4\r\nFormat profile : Base Media\r\nCodec ID : isom\r\nFile size : 435 MiB\r\nDuration : 20mn 33s\r\nOverall bit rate mode : Variable\r\nOverall bit rate : 2 957 Kbps\r\nWriting application : Lavf55.12.100\r\n\r\nVideo\r\nID : 1\r\nFormat : AVC\r\nFormat/Info : Advanced Video Codec\r\nFormat profile : [email protected]\r\nFormat settings, CABAC : Yes\r\nFormat settings, ReFrames : 5 frames\r\nCodec ID : avc1\r\nCodec ID/Info : Advanced Video Coding\r\nDuration : 20mn 33s\r\nBit rate : 2 796 Kbps\r\nWidth : 1 280 pixels\r\nHeight : 720 pixels\r\nDisplay aspect ratio : 16:9\r\nFrame rate mode : Constant\r\nFrame rate : 29.970 fps\r\nColor space : YUV\r\nChroma subsampling : 4:2:0\r\nBit depth : 8 bits\r\nScan type : Progressive\r\nBits/(Pixel*Frame) : 0.101\r\nStream size : 411 MiB (95%)\r\nWriting library : x264 core 138\r\nEncoding settings : cabac=1 / ref=5 / deblock=1:-1:-1 / analyse=0x3:0x113 / me=umh / subme=8 / psy=1 / psy_rd=1.00:0.15 / mixed_ref=1 / me_range=16 / chroma_me=1 / trellis=1 / 8x8dct=1 / cqm=0 / deadzone=21,11 / fast_pskip=1 / chroma_qp_offset=-3 / threads=24 / lookahead_threads=4 / sliced_threads=0 / nr=0 / decimate=1 / interlaced=0 / bluray_compat=0 / constrained_intra=0 / bframes=3 / b_pyramid=2 / b_adapt=2 / b_bias=0 / direct=3 / weightb=1 / open_gop=0 / weightp=2 / keyint=250 / keyint_min=25 / scenecut=40 / intra_refresh=0 / rc_lookahead=50 / rc=crf / mbtree=1 / crf=20.0 / qcomp=0.60 / qpmin=0 / qpmax=69 / qpstep=4 / ip_ratio=1.40 / aq=1:1.00\r\nLanguage : Russian\r\n\r\nAudio\r\nID : 2\r\nFormat : AAC\r\nFormat/Info : Advanced Audio Codec\r\nFormat profile : LC\r\nCodec ID : 40\r\nDuration : 20mn 33s\r\nBit rate mode : Variable\r\nBit rate : 151 Kbps\r\nMaximum bit rate : 192 Kbps\r\nChannel(s) : 2 channels\r\nChannel positions : Front: L R\r\nSampling rate : 44.1 KHz\r\nCompression mode : Lossy\r\nStream size : 22.3 MiB (5%)\r\nLanguage : Russian\r\n\r\n