Teen Sex Porn Videos Free Nude Teens 3009

Sex Teens porn movies 3015Teen porn movies 3006

Posted in Amateur, HD Porn, Sex Movies, Teen, Threesome | 7526 Views |


Rate this girl !!!




\r\n\r\n7.jpg\r\n\r\nLink(763 Mb||29:24||1280*720||MP4)\r\n



DOWNLOAD

Keep2share.cc - Uploaded.net - Openload.co - Rapidu.net


http://k2s.cc/file/b1525dee7c73a/DPNTCSts.mp4
http://ryushare.com/bdy00cft7fcj/DPNTCSts.mp4
http://ul.to/9mcnm48y/DPNTCSts.mp4


Premium here:
uploaded.net
keep2share.cc
rapidu.net.cc


Teens related to Teen Sex Porn Videos Free Nude Teens 3009


Ibiza Party – Teens Sex ryushare uploaded keep2share

Ibiza Party – Teens Sex

Free High Quality Sex Movies 3731 ryushare uploaded keep2share

Free High Quality Sex Movies 3731

Wow girls porn teens 2578 ryushare uploaded keep2share

Wow girls porn teens 2578

In Hd quality xxx video for download 226652 ryushare uploaded keep2share

In Hd quality xxx video for download 226652

89 xxx he video in 226441 ryushare uploaded keep2share

89 xxx he video in 226441

Teen Sex Movies 4083 ryushare uploaded keep2share

Teen Sex Movies 4083

Sandy Sweet Massage ryushare uploaded keep2share

Sandy Sweet Massage

Hot Teen Sex HD videos 224236 ryushare uploaded keep2share

Hot Teen Sex HD videos 224236

HQ Sex Movies Download 225197 ryushare uploaded keep2share

HQ Sex Movies Download 225197

HD Porn Videos 1271 ryushare uploaded keep2share

HD Porn Videos 1271

www xvedeo comhd ryushare uploaded keep2share

www xvedeo comhd

HD Porn Videos 225354 ryushare uploaded keep2share

HD Porn Videos 225354

[WowPorn.com] Feona – Humans Needs. R E D ryushare uploaded keep2share

[WowPorn.com] Feona – Humans Needs. R E D

www xxx18yeras movie hot 226733 ryushare uploaded keep2share

www xxx18yeras movie hot 226733

Porn teen hd downloads 224873 ryushare uploaded keep2share

Porn teen hd downloads 224873

8 Teen XXX – Teen Sex 5056 ryushare uploaded keep2share

8 Teen XXX – Teen Sex 5056

8 Teen XXX – Teen Sex 224449 ryushare uploaded keep2share

8 Teen XXX – Teen Sex 224449

Watch Teen Sex Videos HD 1186 ryushare uploaded keep2share

Watch Teen Sex Videos HD 1186

Good Teen Tube Sexy Young Naked Girls Movies 223843 ryushare uploaded keep2share

Good Teen Tube Sexy Young Naked Girls Movies 223843

Teen Sex Movies 5445 ryushare uploaded keep2share

Teen Sex Movies 5445

Hardcore Sex Hub 224214 ryushare uploaded keep2share

Hardcore Sex Hub 224214

Denni Fresh – 21Naturals ryushare uploaded keep2share

Denni Fresh – 21Naturals

Girls do porn downloads 4056 ryushare uploaded keep2share

Girls do porn downloads 4056

Young xxx 225572 ryushare uploaded keep2share

Young xxx 225572

Watch Teen Sex Videos HD 1595 ryushare uploaded keep2share

Watch Teen Sex Videos HD 1595

Public Pick Ups – Lili Devil ryushare uploaded keep2share

Public Pick Ups – Lili Devil

Teens sex mania 225690 ryushare uploaded keep2share

Teens sex mania 225690

Free High Quality Sex Movies 225595 ryushare uploaded keep2share

Free High Quality Sex Movies 225595

High Definition Movies on HD Teen Porn XXX Tube 1249 ryushare uploaded keep2share

High Definition Movies on HD Teen Porn XXX Tube 1249

Evening at home with brunette ryushare uploaded keep2share

Evening at home with brunette

Www sexy videos shart mb com 226066 ryushare uploaded keep2share

Www sexy videos shart mb com 226066

Wow Porn Movies download) 224280 ryushare uploaded keep2share

Wow Porn Movies download) 224280

Nubilefilms.com Elena Rae – Russian Beauty ryushare uploaded keep2share

Nubilefilms.com Elena Rae – Russian Beauty

Watch Teen Sex Videos HD 225243 ryushare uploaded keep2share

Watch Teen Sex Videos HD 225243

hq Pron movies downlod ryushare uploaded keep2share

hq Pron movies downlod

Report broken links / Post a comment

You must be logged in to post a comment.



General\r\nComplete name : D:HD Porn Teens Sex download movies tube online tubeDPNTCSts.mp4\r\nFormat : MPEG-4\r\nFormat profile : Base Media\r\nCodec ID : isom\r\nFile size : 763 MiB\r\nDuration : 29mn 24s\r\nOverall bit rate : 3 627 Kbps\r\nWriting application : Lavf54.63.104\r\n\r\nVideo\r\nID : 1\r\nFormat : AVC\r\nFormat/Info : Advanced Video Codec\r\nFormat profile : [email protected]\r\nFormat settings, CABAC : Yes\r\nFormat settings, ReFrames : 4 frames\r\nCodec ID : avc1\r\nCodec ID/Info : Advanced Video Coding\r\nDuration : 29mn 24s\r\nBit rate : 3 500 Kbps\r\nWidth : 1 280 pixels\r\nHeight : 720 pixels\r\nDisplay aspect ratio : 16:9\r\nFrame rate mode : Constant\r\nFrame rate : 25.000 fps\r\nColor space : YUV\r\nChroma subsampling : 4:2:0\r\nBit depth : 8 bits\r\nScan type : Progressive\r\nBits/(Pixel*Frame) : 0.152\r\nStream size : 735 MiB (96%)\r\nWriting library : x264 core 120\r\nEncoding settings : cabac=1 / ref=3 / deblock=1:0:0 / analyse=0x3:0x113 / me=hex / subme=6 / psy=1 / psy_rd=1.00:0.00 / mixed_ref=1 / me_range=16 / chroma_me=1 / trellis=2 / 8x8dct=1 / cqm=0 / deadzone=21,11 / fast_pskip=1 / chroma_qp_offset=-2 / threads=12 / sliced_threads=0 / nr=0 / decimate=1 / interlaced=0 / bluray_compat=0 / constrained_intra=0 / bframes=3 / b_pyramid=2 / b_adapt=2 / b_bias=0 / direct=1 / weightb=1 / open_gop=0 / weightp=2 / keyint=60 / keyint_min=25 / scenecut=40 / intra_refresh=0 / rc_lookahead=40 / rc=abr / mbtree=1 / bitrate=3500 / ratetol=1.0 / qcomp=0.60 / qpmin=0 / qpmax=69 / qpstep=4 / ip_ratio=1.41 / aq=1:1.00\r\nLanguage : English\r\n\r\nAudio\r\nID : 2\r\nFormat : AAC\r\nFormat/Info : Advanced Audio Codec\r\nFormat profile : LC\r\nCodec ID : 40\r\nDuration : 29mn 24s\r\nDuration_LastFrame : -16ms\r\nBit rate mode : Constant\r\nBit rate : 128 Kbps\r\nChannel(s) : 2 channels\r\nChannel positions : Front: L R\r\nSampling rate : 44.1 KHz\r\nCompression mode : Lossy\r\nStream size : 26.9 MiB (4%)\r\nLanguage : English\r\n\r\n