Teen Sex Movies 3927

Young XXX Tube Videos 3931Hardcore Sex Hub 3916

Posted in HD Porn, Lesbian, Pornstar, Sex Movies, Teen | 6079 Views |


Rate this girl !!!




cover

\r\n

1920x1080p / MP4 / 1.94 GB

\r\n

(WowGirls) Nomi, Alyssa A – No Comment

\r\n

screens



DOWNLOAD

Keep2share.cc - Uploaded.net - Openload.co - Rapidu.net


http://fileom.com/omn0u0nrw03d/N.o_C.o.m.me.nt_H.D10.8.0.mp4.html
http://k2s.cc/file/40765e35d84a4/N.o_C.o.m.me.nt_H.D10.8.0.mp4
http://ryushare.com/lal3vfv1k06o/N.o_C.o.m.me.nt_H.D10.8.0.mp4
http://ul.to/t0tgdhko/N.o_C.o.m.me.nt_H.D10.8.0.mp4


Premium here:
uploaded.net
keep2share.cc
rapidu.net.cc


Teens related to Teen Sex Movies 3927


Good Teen Tube Sexy Young Naked Girls Movies 2541 ryushare uploaded keep2share

Good Teen Tube Sexy Young Naked Girls Movies 2541

Nicole – Summertime sex hookup ryushare uploaded keep2share

Nicole – Summertime sex hookup

Teen xxx sex hd 224286 ryushare uploaded keep2share

Teen xxx sex hd 224286

Two Teasing Tongues 10 – B ryushare uploaded keep2share

Two Teasing Tongues 10 – B

Free Porn Videos Xxx Movies Pussy Porn 5324 ryushare uploaded keep2share

Free Porn Videos Xxx Movies Pussy Porn 5324

Wow porn hd downloads 225170 ryushare uploaded keep2share

Wow porn hd downloads 225170

sexy video9 hd xxx in 226643 ryushare uploaded keep2share

sexy video9 hd xxx in 226643

hd xxx com dawonlod vedeo 226419 ryushare uploaded keep2share

hd xxx com dawonlod vedeo 226419

Hardcore Sex Hub 4013 ryushare uploaded keep2share

Hardcore Sex Hub 4013

wallpaper of XXX on bed boys and girl 226347 ryushare uploaded keep2share

wallpaper of XXX on bed boys and girl 226347

TrickyMasseur.com Isabeli ryushare uploaded keep2share

TrickyMasseur.com Isabeli

PORN HUB HQ SEXY DUONLOD com 226478 ryushare uploaded keep2share

PORN HUB HQ SEXY DUONLOD com 226478

HD porn teen downloads 2662 ryushare uploaded keep2share

HD porn teen downloads 2662

Yours Forever – Lisa ryushare uploaded keep2share

Yours Forever – Lisa

hd porn new breast 226190 ryushare uploaded keep2share

hd porn new breast 226190

Good Teen Tube Sexy Young Naked Girls Movies 225053 ryushare uploaded keep2share

Good Teen Tube Sexy Young Naked Girls Movies 225053

caprice videos xxx ryushare uploaded keep2share

caprice videos xxx

Adult Hardcore XXX Sex Videos 4052 ryushare uploaded keep2share

Adult Hardcore XXX Sex Videos 4052

full free download 720p hd porn movies 226240 ryushare uploaded keep2share

full free download 720p hd porn movies 226240

High Definition Movies on HD 4195 ryushare uploaded keep2share

High Definition Movies on HD 4195

teenseks1819 226156 ryushare uploaded keep2share

teenseks1819 226156

Wow Girls Porn Clips download 225097 ryushare uploaded keep2share

Wow Girls Porn Clips download 225097

Young Virgin Pussy Teen Fuck Tube 1905 ryushare uploaded keep2share

Young Virgin Pussy Teen Fuck Tube 1905

Wow Girls Porn Clips download 223967 ryushare uploaded keep2share

Wow Girls Porn Clips download 223967

The best Teen sex 225173 ryushare uploaded keep2share

The best Teen sex 225173

Hot hd teen sex videos 4751 ryushare uploaded keep2share

Hot hd teen sex videos 4751

fast tiam movie hot xxx hd free 226715 ryushare uploaded keep2share

fast tiam movie hot xxx hd free 226715

Teen Sex Porn Videos Free Nude Teens 224697 ryushare uploaded keep2share

Teen Sex Porn Videos Free Nude Teens 224697

Sex videos hd for pc ryushare uploaded keep2share

Sex videos hd for pc

18 years girl xxx sex videos) 4610 ryushare uploaded keep2share

18 years girl xxx sex videos) 4610

Wow Porn Movies download) 224417 ryushare uploaded keep2share

Wow Porn Movies download) 224417

HD Porn Videos 2800 ryushare uploaded keep2share

HD Porn Videos 2800

Creampie-Angels.com Grace ryushare uploaded keep2share

Creampie-Angels.com Grace

Gianna – Real Blonde Love Doll Screws Her BF ryushare uploaded keep2share

Gianna – Real Blonde Love Doll Screws Her BF

www hd sex xxxcome ryushare uploaded keep2share

www hd sex xxxcome

Report broken links / Post a comment

You must be logged in to post a comment.



UPLOADED / RYUSHARE / FILEOM / KEEP2SHARE\r\n\r\nhd tube amateur porn young girls sex direct download online movies clips\r\nryushare.com uploaded.net keep2share.cc fileom.com streamcloud.eu allmyvideos.net ul.to download porn movies clip\r\n\r\nGeneral\r\nComplete name : D:\No_Comment_HD1080.mp4\r\nFormat : MPEG-4\r\nFormat profile : Base Media\r\nCodec ID : isom\r\nFile size : 1.94 GiB\r\nDuration : 25mn 56s\r\nOverall bit rate mode : Variable\r\nOverall bit rate : 10.7 Mbps\r\nWriting application : Lavf55.12.100\r\n\r\nVideo\r\nID : 1\r\nFormat : AVC\r\nFormat/Info : Advanced Video Codec\r\nFormat profile : [email protected]\r\nFormat settings, CABAC : Yes\r\nFormat settings, ReFrames : 5 frames\r\nCodec ID : avc1\r\nCodec ID/Info : Advanced Video Coding\r\nDuration : 25mn 56s\r\nBit rate : 10.6 Mbps\r\nWidth : 1 920 pixels\r\nHeight : 1 080 pixels\r\nDisplay aspect ratio : 16:9\r\nFrame rate mode : Constant\r\nFrame rate : 29.970 fps\r\nColor space : YUV\r\nChroma subsampling : 4:2:0\r\nBit depth : 8 bits\r\nScan type : Progressive\r\nBits/(Pixel*Frame) : 0.170\r\nStream size : 1.92 GiB (99%)\r\nWriting library : x264 core 138\r\nEncoding settings : cabac=1 / ref=5 / deblock=1:-1:-1 / analyse=0x3:0x113 / me=umh / subme=8 / psy=1 / psy_rd=1.00:0.15 / mixed_ref=1 / me_range=16 / chroma_me=1 / trellis=1 / 8x8dct=1 / cqm=0 / deadzone=21,11 / fast_pskip=1 / chroma_qp_offset=-3 / threads=8 / lookahead_threads=1 / sliced_threads=0 / nr=0 / decimate=1 / interlaced=0 / bluray_compat=0 / constrained_intra=0 / bframes=3 / b_pyramid=2 / b_adapt=2 / b_bias=0 / direct=3 / weightb=1 / open_gop=0 / weightp=2 / keyint=250 / keyint_min=25 / scenecut=40 / intra_refresh=0 / rc_lookahead=50 / rc=crf / mbtree=1 / crf=20.0 / qcomp=0.60 / qpmin=0 / qpmax=69 / qpstep=4 / ip_ratio=1.40 / aq=1:1.00\r\nLanguage : Russian\r\n\r\nAudio\r\nID : 2\r\nFormat : AAC\r\nFormat/Info : Advanced Audio Codec\r\nFormat profile : LC\r\nCodec ID : 40\r\nDuration : 25mn 56s\r\nBit rate mode : Variable\r\nBit rate : 90.0 Kbps\r\nMaximum bit rate : 192 Kbps\r\nChannel(s) : 2 channels\r\nChannel positions : Front: L R\r\nSampling rate : 44.1 KHz\r\nCompression mode : Lossy\r\nStream size : 16.7 MiB (1%)\r\nLanguage : Russian\r\n\r\n