Teen Sex Movies 1772

First time Sexual Films 18 sex xxx 1785Teen Sex Movies 1769

Posted in Amateur, HD Porn, Sex Movies, Teen | 10179 Views |


Rate this girl !!!




\r\n\r\n\r\nhttp://img56.imagetwist.com/i/05280/8qqhd6qbpt72.jpeg\r\n\r\n Link(605 Mb||17:42||1280*720||MP4)



DOWNLOAD

Keep2share.cc - Uploaded.net - Openload.co - Rapidu.net


http://keep2share.cc/file/d1fa4fa04ef6a
http://ryushare.com/8vpejwdnplde/HFCNYMph.rar
http://ul.to/eo7gtqlg


Premium here:
uploaded.net
keep2share.cc
rapidu.net.cc


Teens related to Teen Sex Movies 1772


18YearsOld.com Megan Rain – Playing Hooky ryushare uploaded keep2share

18YearsOld.com Megan Rain – Playing Hooky

teens xxx vetiyos ryushare uploaded keep2share

teens xxx vetiyos

The best Teen sex 6196 ryushare uploaded keep2share

The best Teen sex 6196

Hot hd teen sex videos 3748 ryushare uploaded keep2share

Hot hd teen sex videos 3748

Hardcore Sex Hub 4176 ryushare uploaded keep2share

Hardcore Sex Hub 4176

Amateur Teen Sex 225702 ryushare uploaded keep2share

Amateur Teen Sex 225702

gibitube com porn 226071 ryushare uploaded keep2share

gibitube com porn 226071

yang garls boy xxx ryushare uploaded keep2share

yang garls boy xxx

18XGirls.com Tori (aka Lola Taylor) ryushare uploaded keep2share

18XGirls.com Tori (aka Lola Taylor)

Porno young teens movies 2581 ryushare uploaded keep2share

Porno young teens movies 2581

Sweet Teen Porn – Young Porn Videos 225945 ryushare uploaded keep2share

Sweet Teen Porn – Young Porn Videos 225945

Amateur Teen Sex 5465 ryushare uploaded keep2share

Amateur Teen Sex 5465

Teen Porn XXX Tube 224730 ryushare uploaded keep2share

Teen Porn XXX Tube 224730

Nancey – Aggressive Neighbours ryushare uploaded keep2share

Nancey – Aggressive Neighbours

Hd quality – Teen sex video 223701 ryushare uploaded keep2share

Hd quality – Teen sex video 223701

HD Sex World Videos High Definition Free Porn 224277 ryushare uploaded keep2share

HD Sex World Videos High Definition Free Porn 224277

Angel-Desert – Publics Pizzeria – Il Gusto ryushare uploaded keep2share

Angel-Desert – Publics Pizzeria – Il Gusto

xxx video 6teen Hd ryushare uploaded keep2share

xxx video 6teen Hd

Movies Young legal porn 5242 ryushare uploaded keep2share

Movies Young legal porn 5242

Teen Sex Videos Tube Movies 225847 ryushare uploaded keep2share

Teen Sex Videos Tube Movies 225847

Teen Sex Movies 4083 ryushare uploaded keep2share

Teen Sex Movies 4083

Hot Teen Sex 1819 ryushare uploaded keep2share

Hot Teen Sex 1819

Young legal porn clips 3020 ryushare uploaded keep2share

Young legal porn clips 3020

High Definition Movies on HD Teen Porn XXX Tube 223972 ryushare uploaded keep2share

High Definition Movies on HD Teen Porn XXX Tube 223972

HD Sex World Videos High Definition Free Porn 3888 ryushare uploaded keep2share

HD Sex World Videos High Definition Free Porn 3888

caprice videos xxx ryushare uploaded keep2share

caprice videos xxx

teen pornosu indir mp4 ryushare uploaded keep2share

teen pornosu indir mp4

Hardcore Sex Hub 223889 ryushare uploaded keep2share

Hardcore Sex Hub 223889

8 Teen XXX – Teen Sex 1386 ryushare uploaded keep2share

8 Teen XXX – Teen Sex 1386

Hardcore sex videos in the high definition quality 2374 ryushare uploaded keep2share

Hardcore sex videos in the high definition quality 2374

Klara, Paloma – Let’s Come Together ryushare uploaded keep2share

Klara, Paloma – Let’s Come Together

Hd young videos 3854 ryushare uploaded keep2share

Hd young videos 3854

pornosexxx hd 226414 ryushare uploaded keep2share

pornosexxx hd 226414

www full hd porn downlod 226719 ryushare uploaded keep2share

www full hd porn downlod 226719

Young Sex Movies 5419 ryushare uploaded keep2share

Young Sex Movies 5419

Report broken links / Post a comment

You must be logged in to post a comment.



General\r\nComplete name : D:HD Teens Download Porn Sex clips movies Tube.xxxHFCNYMphHFCNYMph.mp4\r\nFormat : MPEG-4\r\nFormat profile : Base Media\r\nCodec ID : isom\r\nFile size : 605 MiB\r\nDuration : 17mn 42s\r\nOverall bit rate mode : Variable\r\nOverall bit rate : 4 777 Kbps\r\nWriting application : Lavf52.64.2\r\n\r\nVideo\r\nID : 1\r\nFormat : AVC\r\nFormat/Info : Advanced Video Codec\r\nFormat profile : [email protected]\r\nFormat settings, CABAC : Yes\r\nFormat settings, ReFrames : 2 frames\r\nCodec ID : avc1\r\nCodec ID/Info : Advanced Video Coding\r\nDuration : 17mn 42s\r\nBit rate : 4 620 Kbps\r\nWidth : 1 280 pixels\r\nHeight : 720 pixels\r\nDisplay aspect ratio : 16:9\r\nFrame rate mode : Constant\r\nFrame rate : 29.970 fps\r\nColor space : YUV\r\nChroma subsampling : 4:2:0\r\nBit depth : 8 bits\r\nScan type : Progressive\r\nBits/(Pixel*Frame) : 0.167\r\nStream size : 585 MiB (97%)\r\nWriting library : x264 core 107\r\nEncoding settings : cabac=1 / ref=2 / deblock=1:0:0 / analyse=0x3:0x113 / me=hex / subme=6 / psy=1 / psy_rd=1.00:0.00 / mixed_ref=0 / me_range=16 / chroma_me=1 / trellis=0 / 8x8dct=1 / cqm=0 / deadzone=21,11 / fast_pskip=1 / chroma_qp_offset=-2 / threads=12 / sliced_threads=0 / nr=0 / decimate=1 / interlaced=0 / constrained_intra=0 / bframes=3 / b_pyramid=0 / b_adapt=1 / b_bias=0 / direct=3 / weightb=1 / open_gop=0 / weightp=2 / keyint=250 / keyint_min=25 / scenecut=40 / intra_refresh=0 / rc_lookahead=40 / rc=crf / mbtree=1 / crf=20.0 / qcomp=0.60 / qpmin=10 / qpmax=51 / qpstep=4 / ip_ratio=1.41 / aq=1:1.00\r\n\r\nAudio\r\nID : 2\r\nFormat : AAC\r\nFormat/Info : Advanced Audio Codec\r\nFormat profile : LC\r\nCodec ID : 40\r\nDuration : 17mn 42s\r\nBit rate mode : Variable\r\nBit rate : 152 Kbps\r\nChannel(s) : 2 channels\r\nChannel positions : Front: L R\r\nSampling rate : 44.1 KHz\r\nCompression mode : Lossy\r\nStream size : 19.2 MiB (3%)\r\n\r\n