Teen Sex Movies 1635

Teenies Videos - Teen Porn, Teen Sex, XXX Free Videos 1642HD Porn Teen Sex Videos 1629

Posted in Amateur, HD Porn, Sex Movies, Teen | 9253 Views |


Rate this girl !!!




\r\n\r\n\r\n\r\n\r\n\r\n \r\n\r\nhttp://img102.imagetwist.com/i/05252/in8tc9hg7y0b.jpeg\r\n\r\n Link(811 Mb||27:44||1280*720||MP4)



DOWNLOAD

Keep2share.cc - Uploaded.net - Openload.co - Rapidu.net


http://keep2share.cc/file/1c1946153f3b9
http://ryushare.com/p4v9u76gir6y/JSRDNSky.rar
http://ul.to/zhfl81he


Premium here:
uploaded.net
keep2share.cc
rapidu.net.cc


Teens related to Teen Sex Movies 1635


Wow porn tube movies 4671 ryushare uploaded keep2share

Wow porn tube movies 4671

Watch Teen Sex Videos HD 224429 ryushare uploaded keep2share

Watch Teen Sex Videos HD 224429

HQ Sex Movies Download 4353 ryushare uploaded keep2share

HQ Sex Movies Download 4353

Teens sex mania 225041 ryushare uploaded keep2share

Teens sex mania 225041

Teen porn movies 1195 ryushare uploaded keep2share

Teen porn movies 1195

www 8-8teen com 225994 ryushare uploaded keep2share

www 8-8teen com 225994

College Teen Sex 224503 ryushare uploaded keep2share

College Teen Sex 224503

HD Porn Videos 225943 ryushare uploaded keep2share

HD Porn Videos 225943

Porn party teen girls 224921 ryushare uploaded keep2share

Porn party teen girls 224921

Hot Teen Sex 225853 ryushare uploaded keep2share

Hot Teen Sex 225853

Teens 1080p hd porn 2563 ryushare uploaded keep2share

Teens 1080p hd porn 2563

WowGirls Livia Grace C Getting Off Without A Cock ryushare uploaded keep2share

WowGirls Livia Grace C Getting Off Without A Cock

Uliya – Special surprise for a sex date ryushare uploaded keep2share

Uliya – Special surprise for a sex date

www hd teen movie download com 226210 ryushare uploaded keep2share

www hd teen movie download com 226210

mania fucking teen hd video ryushare uploaded keep2share

mania fucking teen hd video

Porn party teen girls 225425 ryushare uploaded keep2share

Porn party teen girls 225425

www virgin sex hd porn videos com ryushare uploaded keep2share

www virgin sex hd porn videos com

8 Teen XXX – Teen Sex 224358 ryushare uploaded keep2share

8 Teen XXX – Teen Sex 224358

high quality full 1080 hd sex movies 226540 ryushare uploaded keep2share

high quality full 1080 hd sex movies 226540

Teen xxx sex hd 5540 ryushare uploaded keep2share

Teen xxx sex hd 5540

www xxx com vadio ryushare uploaded keep2share

www xxx com vadio

xxx hd smoll garls video com ryushare uploaded keep2share

xxx hd smoll garls video com

www yes xxx hd downlads 226589 ryushare uploaded keep2share

www yes xxx hd downlads 226589

Hot hd teen sex videos 4751 ryushare uploaded keep2share

Hot hd teen sex videos 4751

Porno movies young teens lesbian 5372 ryushare uploaded keep2share

Porno movies young teens lesbian 5372

Jungle Fever – Beata, Anjelica ryushare uploaded keep2share

Jungle Fever – Beata, Anjelica

Wow porn tube movies 5353 ryushare uploaded keep2share

Wow porn tube movies 5353

Teen Tits Tube, Young Girls Porn Videos 3993 ryushare uploaded keep2share

Teen Tits Tube, Young Girls Porn Videos 3993

Dinara – TeenSexMania – TeenMegaWorld ryushare uploaded keep2share

Dinara – TeenSexMania – TeenMegaWorld

WowGirls Beata And Klara Satisfy Me ryushare uploaded keep2share

WowGirls Beata And Klara Satisfy Me

Hardcore Sex Hub 5391 ryushare uploaded keep2share

Hardcore Sex Hub 5391

world sex pink com 226496 ryushare uploaded keep2share

world sex pink com 226496

Teen porn movies 225157 ryushare uploaded keep2share

Teen porn movies 225157

Daria – Clinic Sex ryushare uploaded keep2share

Daria – Clinic Sex

89 hd sex videos in 226208 ryushare uploaded keep2share

89 hd sex videos in 226208

Report broken links / Post a comment

You must be logged in to post a comment.



General\r\nComplete name : D:HD Teens Download Porn Sex clips movies Tube.xxxJSRDNSkyJSRDNSky.mp4\r\nFormat : MPEG-4\r\nFormat profile : Base Media\r\nCodec ID : isom\r\nFile size : 811 MiB\r\nDuration : 27mn 44s\r\nOverall bit rate : 4 084 Kbps\r\nEncoded date : UTC 2014-01-18 01:33:11\r\nTagged date : UTC 2014-01-18 01:33:11\r\nWriting application : Lavf53.24.2\r\n\r\nVideo\r\nID : 1\r\nFormat : AVC\r\nFormat/Info : Advanced Video Codec\r\nFormat profile : [email protected]\r\nFormat settings, CABAC : Yes\r\nFormat settings, ReFrames : 3 frames\r\nCodec ID : avc1\r\nCodec ID/Info : Advanced Video Coding\r\nDuration : 27mn 44s\r\nBit rate : 4 000 Kbps\r\nWidth : 1 280 pixels\r\nHeight : 720 pixels\r\nDisplay aspect ratio : 16:9\r\nFrame rate mode : Constant\r\nFrame rate : 29.970 fps\r\nColor space : YUV\r\nChroma subsampling : 4:2:0\r\nBit depth : 8 bits\r\nScan type : Progressive\r\nBits/(Pixel*Frame) : 0.145\r\nStream size : 796 MiB (98%)\r\nWriting library : x264 core 124 r2197 69a0443\r\nEncoding settings : cabac=1 / ref=3 / deblock=1:0:0 / analyse=0x1:0x111 / me=hex / subme=5 / psy=0 / mixed_ref=0 / me_range=16 / chroma_me=1 / trellis=1 / 8x8dct=0 / cqm=0 / deadzone=21,11 / fast_pskip=1 / chroma_qp_offset=0 / threads=6 / sliced_threads=0 / nr=0 / decimate=1 / interlaced=0 / bluray_compat=0 / constrained_intra=0 / bframes=3 / b_pyramid=0 / b_adapt=1 / b_bias=0 / direct=1 / weightb=0 / open_gop=0 / weightp=2 / keyint=300 / keyint_min=29 / scenecut=40 / intra_refresh=0 / rc=abr / mbtree=0 / bitrate=4000 / ratetol=1.0 / qcomp=0.60 / qpmin=10 / qpmax=51 / qpstep=4 / ip_ratio=1.40 / pb_ratio=1.30 / aq=1:1.00\r\nLanguage : English\r\nEncoded date : UTC 2014-01-18 01:33:11\r\nTagged date : UTC 2014-01-18 01:33:11\r\n\r\nAudio\r\nID : 2\r\nFormat : AAC\r\nFormat/Info : Advanced Audio Codec\r\nFormat profile : LC\r\nCodec ID : 40\r\nDuration : 27mn 44s\r\nBit rate mode : Constant\r\nBit rate : 64.1 Kbps\r\nChannel(s) : 2 channels\r\nChannel positions : Front: L R\r\nSampling rate : 48.0 KHz\r\nCompression mode : Lossy\r\nStream size : 12.7 MiB (2%)\r\nLanguage : English\r\nEncoded date : UTC 2014-01-18 01:33:11\r\nTagged date : UTC 2014-01-18 01:33:11\r\n\r\n