Teen Sex Movies 1242

Watch Teen Sex Videos HD 1246HD Porn Video 1239

Posted in Amateur, HD Porn, Sex Movies, Teen | 17515 Views |


Rate this girl !!!




\r\n\r\n\r\nhttp://img101.imagetwist.com/i/05171/n8o58xw208cy.jpg\r\n\r\n 



DOWNLOAD

Keep2share.cc - Uploaded.net - Openload.co - Rapidu.net


http://ryushare.com/8snix5hjjef5/CBSNTHly.rar
http://ul.to/5p3j0z3n
http://keep2share.cc/file/52efbc9b9acd3


Premium here:
uploaded.net
keep2share.cc
rapidu.net.cc


Teens related to Teen Sex Movies 1242


Amateur HD Porn Video 4576 ryushare uploaded keep2share

Amateur HD Porn Video 4576

Small girls and boys porn 2528 ryushare uploaded keep2share

Small girls and boys porn 2528

Young XXX Tube Videos 2469 ryushare uploaded keep2share

Young XXX Tube Videos 2469

hd sex videos download new 226623 ryushare uploaded keep2share

hd sex videos download new 226623

HD sex movies downloads 3812 ryushare uploaded keep2share

HD sex movies downloads 3812

Teen Sex Videos Tube Movies 225164 ryushare uploaded keep2share

Teen Sex Videos Tube Movies 225164

Teenage Fuck Clips 2933 ryushare uploaded keep2share

Teenage Fuck Clips 2933

HD Porn Videos 4077 ryushare uploaded keep2share

HD Porn Videos 4077

ful hd porn girls 226184 ryushare uploaded keep2share

ful hd porn girls 226184

Adult Hardcore XXX Sex Videos 3795 ryushare uploaded keep2share

Adult Hardcore XXX Sex Videos 3795

First time Sexual Films 18 sex xxx 2101 ryushare uploaded keep2share

First time Sexual Films 18 sex xxx 2101

Hot Teen Sex 2747 ryushare uploaded keep2share

Hot Teen Sex 2747

Watch Teen Sex Videos HD 1216 ryushare uploaded keep2share

Watch Teen Sex Videos HD 1216

EuroSexParties Tiana And Beata Undine Time For Playing ryushare uploaded keep2share

EuroSexParties Tiana And Beata Undine Time For Playing

www hdxxx porn tube 226248 ryushare uploaded keep2share

www hdxxx porn tube 226248

Teen Tits Tube, Young Girls Porn Videos 1565 ryushare uploaded keep2share

Teen Tits Tube, Young Girls Porn Videos 1565

Hardcore Sex Hub 224158 ryushare uploaded keep2share

Hardcore Sex Hub 224158

xxx bf net 226291 ryushare uploaded keep2share

xxx bf net 226291

High Definition Movies on HD 224800 ryushare uploaded keep2share

High Definition Movies on HD 224800

21Natural hd teen free ryushare uploaded keep2share

21Natural hd teen free

Hot Teen Sex 224463 ryushare uploaded keep2share

Hot Teen Sex 224463

Irina hot teen ryushare uploaded keep2share

Irina hot teen

HD Teen Sex Tube 5272 ryushare uploaded keep2share

HD Teen Sex Tube 5272

hd com 18 year sex mobi 226401 ryushare uploaded keep2share

hd com 18 year sex mobi 226401

Sweet Teen Porn – Young Porn Videos 1409 ryushare uploaded keep2share

Sweet Teen Porn – Young Porn Videos 1409

Nancey – Aggressive Neighbours ryushare uploaded keep2share

Nancey – Aggressive Neighbours

Teen Porn XXX Tube 224497 ryushare uploaded keep2share

Teen Porn XXX Tube 224497

18OnlyGirls.com – Violette ryushare uploaded keep2share

18OnlyGirls.com – Violette

www hdworld xxx video com ryushare uploaded keep2share

www hdworld xxx video com

Nude Teens fucking hard 4300 ryushare uploaded keep2share

Nude Teens fucking hard 4300

HD Porn Videos 1960 ryushare uploaded keep2share

HD Porn Videos 1960

Wow Girls Porn Clips download 225381 ryushare uploaded keep2share

Wow Girls Porn Clips download 225381

teen porn white skin 226106 ryushare uploaded keep2share

teen porn white skin 226106

Wow porn hd downloads 224435 ryushare uploaded keep2share

Wow porn hd downloads 224435

www xvedeo comhd ryushare uploaded keep2share

www xvedeo comhd

Report broken links / Post a comment

You must be logged in to post a comment.



General\r\nComplete name : D:HD TeenMania Porn Sex videos.xxxCBSNTHlyCBSNTHly.wmv\r\nFormat : Windows Media\r\nFile size : 661 MiB\r\nDuration : 17mn 54s\r\nOverall bit rate : 5 157 Kbps\r\nMaximum Overall bit rate : 5 128 Kbps\r\nEncoded date : UTC 2010-11-01 19:03:40.000\r\n\r\nVideo\r\nID : 1\r\nFormat : VC-1\r\nFormat profile : Main\r\nCodec ID : WMV3\r\nCodec ID/Info : Windows Media Video 9\r\nCodec ID/Hint : WMV3\r\nDescription of the codec : Windows Media Video 322432824 - 2-pass CBR\r\nDuration : 17mn 54s\r\nBit rate : 5 000 Kbps\r\nWidth : 720 pixels\r\nHeight : 576 pixels\r\nDisplay aspect ratio : 5:4\r\nFrame rate : 25.000 fps\r\nStandard : PAL\r\nColor space : YUV\r\nChroma subsampling : 4:2:0\r\nBit depth : 8 bits\r\nScan type : Progressive\r\nCompression mode : Lossy\r\nBits/(Pixel*Frame) : 0.482\r\nStream size : 640 MiB (97%)\r\n\r\nAudio\r\nID : 2\r\nFormat : WMA\r\nFormat version : Version 2\r\nCodec ID : 161\r\nCodec ID/Info : Windows Media Audio\r\nDescription of the codec : Windows Media Audio 9 - 322432824 kbps, 322432824 kHz, stereo CBR\r\nDuration : 17mn 54s\r\nBit rate : 128 Kbps\r\nChannel(s) : 2 channels\r\nSampling rate : 44.1 KHz\r\nBit depth : 16 bits\r\nStream size : 16.4 MiB (2%)\r\n\r\n