Teen Porn XXX Tube 3791

Sweet Teen Porn - Young Porn Videos 3794Adult Hardcore XXX Sex Videos 3788

Posted in Amateur, HD Porn, Sex Movies, Solo, Teen | 9191 Views |


Rate this girl !!!




cover

\r\n

1920x1080p / MP4 / 582.08 MB

\r\n

 UPLOADED / RYUSHARE / FILEOM / KEEP2SHARE\r\n

\r\n \r\n

SCREENSHOTS:

\r\n

screens



DOWNLOAD

Keep2share.cc - Uploaded.net - Openload.co - Rapidu.net


http://fileom.com/a7qywovh8ua7/L0s1ng.T1m3.mp4.html
http://k2s.cc/file/40a37008272ea/L0s1ng.T1m3.mp4
http://ryushare.com/itxfz1jbo8rh/L0s1ng.T1m3.mp4
http://ul.to/b2jh7rfz/L0s1ng.T1m3.mp4


Premium here:
uploaded.net
keep2share.cc
rapidu.net.cc


Teens related to Teen Porn XXX Tube 3791


Teenies Videos – Teen Porn, Teen Sex, XXX Free Videos 5163 ryushare uploaded keep2share

Teenies Videos – Teen Porn, Teen Sex, XXX Free Videos 5163

Alexis Rodriguez – So Much Ass ryushare uploaded keep2share

Alexis Rodriguez – So Much Ass

mania teennporn 226597 ryushare uploaded keep2share

mania teennporn 226597

www xxx hot 99 com 226355 ryushare uploaded keep2share

www xxx hot 99 com 226355

Alice March – Smooth as Silk ryushare uploaded keep2share

Alice March – Smooth as Silk

Teenage Fuck Clips 1939 ryushare uploaded keep2share

Teenage Fuck Clips 1939

Wow porn tube movies 225566 ryushare uploaded keep2share

Wow porn tube movies 225566

High Definition Movies on HD 1969 ryushare uploaded keep2share

High Definition Movies on HD 1969

Sex videos hd for pc ryushare uploaded keep2share

Sex videos hd for pc

Rocco Siffred – Kiara Lord – POV ryushare uploaded keep2share

Rocco Siffred – Kiara Lord – POV

Hd teen party porn pics 226613 ryushare uploaded keep2share

Hd teen party porn pics 226613

Teen Porn XXX Tube 225246 ryushare uploaded keep2share

Teen Porn XXX Tube 225246

Watch Teen Sex Videos HD 3515 ryushare uploaded keep2share

Watch Teen Sex Videos HD 3515

Watch Teen Sex Videos HD 2098 ryushare uploaded keep2share

Watch Teen Sex Videos HD 2098

Free High Quality Sex Movies 4274 ryushare uploaded keep2share

Free High Quality Sex Movies 4274

Kaylee Haze – Wet Pussy Play ryushare uploaded keep2share

Kaylee Haze – Wet Pussy Play

Free Porn Videos Xxx Movies Pussy Porn 1549 ryushare uploaded keep2share

Free Porn Videos Xxx Movies Pussy Porn 1549

Free Teen Porn Videos at Teen Sex Tube XXX 2592 ryushare uploaded keep2share

Free Teen Porn Videos at Teen Sex Tube XXX 2592

Girls do porn in HD 223747 ryushare uploaded keep2share

Girls do porn in HD 223747

HD Teens Sex Tube Videos XxX 1816 ryushare uploaded keep2share

HD Teens Sex Tube Videos XxX 1816

girlboy xxxwalpaper 226160 ryushare uploaded keep2share

girlboy xxxwalpaper 226160

Gina Gerson – Date By The Pool ryushare uploaded keep2share

Gina Gerson – Date By The Pool

Movies Young legal porn 224470 ryushare uploaded keep2share

Movies Young legal porn 224470

Hot Japanese ryushare uploaded keep2share

Hot Japanese

www wowgirl com sex 226357 ryushare uploaded keep2share

www wowgirl com sex 226357

Hardcore Sex Hub 224158 ryushare uploaded keep2share

Hardcore Sex Hub 224158

Download young porn sex 224839 ryushare uploaded keep2share

Download young porn sex 224839

www21SEXE TURY com ryushare uploaded keep2share

www21SEXE TURY com

Hardcore sex videos in the high definition quality 3582 ryushare uploaded keep2share

Hardcore sex videos in the high definition quality 3582

Wow Girls Porn Clips download 223881 ryushare uploaded keep2share

Wow Girls Porn Clips download 223881

Teen Tits Tube, Young Girls Porn Videos 3993 ryushare uploaded keep2share

Teen Tits Tube, Young Girls Porn Videos 3993

College Teen Sex 1921 ryushare uploaded keep2share

College Teen Sex 1921

xxxx clips hd ryushare uploaded keep2share

xxxx clips hd

Teens in Porno young porn videos and free teen sex 225592 ryushare uploaded keep2share

Teens in Porno young porn videos and free teen sex 225592

First time Sexual Films 18 sex xxx 5710 ryushare uploaded keep2share

First time Sexual Films 18 sex xxx 5710

Report broken links / Post a comment

You must be logged in to post a comment.



General\r\nComplete name : D:hd pornstars teens ryushare.com uploaded.net keep2share.cc fileom.com streamcloud.eu allmyvideos.net ul.to download porn movies clips \r\nLosing_Track_Of_Time_HD1080.mp4\r\nFormat : MPEG-4\r\nFormat profile : Base Media\r\nCodec ID : isom\r\nFile size : 582 MiB\r\nDuration : 14mn 28s\r\nOverall bit rate mode : Variable\r\nOverall bit rate : 5 622 Kbps\r\nEncoded date : UTC 1970-01-01 00:00:00\r\nTagged date : UTC 1970-01-01 00:00:00\r\nWriting application : Lavf52.64.2\r\n\r\nVideo\r\nID : 1\r\nFormat : AVC\r\nFormat/Info : Advanced Video Codec\r\nFormat profile : [email protected]\r\nFormat settings, CABAC : Yes\r\nFormat settings, ReFrames : 2 frames\r\nCodec ID : avc1\r\nCodec ID/Info : Advanced Video Coding\r\nDuration : 14mn 28s\r\nBit rate : 5 507 Kbps\r\nWidth : 1 920 pixels\r\nHeight : 1 080 pixels\r\nDisplay aspect ratio : 16:9\r\nFrame rate mode : Constant\r\nFrame rate : 29.970 fps\r\nColor space : YUV\r\nChroma subsampling : 4:2:0\r\nBit depth : 8 bits\r\nScan type : Progressive\r\nBits/(Pixel*Frame) : 0.089\r\nStream size : 570 MiB (98%)\r\nWriting library : x264 core 102 r1666 d058f37\r\nEncoding settings : cabac=1 / ref=2 / deblock=1:0:0 / analyse=0x3:0x113 / me=hex / subme=6 / psy=1 / psy_rd=1.00:0.00 / mixed_ref=0 / me_range=16 / chroma_me=1 / trellis=0 / 8x8dct=1 / cqm=0 / deadzone=21,11 / fast_pskip=1 / chroma_qp_offset=-2 / threads=24 / sliced_threads=0 / nr=0 / decimate=1 / interlaced=0 / constrained_intra=0 / bframes=3 / b_pyramid=0 / b_adapt=1 / b_bias=0 / direct=3 / weightb=1 / open_gop=0 / weightp=2 / keyint=250 / keyint_min=25 / scenecut=40 / intra_refresh=0 / rc_lookahead=40 / rc=crf / mbtree=1 / crf=20.0 / qcomp=0.60 / qpmin=10 / qpmax=51 / qpstep=4 / ip_ratio=1.41 / aq=1:1.00\r\nEncoded date : UTC 1970-01-01 00:00:00\r\nTagged date : UTC 1970-01-01 00:00:00\r\n\r\nAudio\r\nID : 2\r\nFormat : AAC\r\nFormat/Info : Advanced Audio Codec\r\nFormat profile : LC\r\nCodec ID : 40\r\nDuration : 14mn 28s\r\nBit rate mode : Variable\r\nBit rate : 109 Kbps\r\nChannel(s) : 2 channels\r\nChannel positions : Front: L R\r\nSampling rate : 44.1 KHz\r\nCompression mode : Lossy\r\nStream size : 11.3 MiB (2%)\r\nEncoded date : UTC 1970-01-01 00:00:00\r\nTagged date : UTC 1970-01-01 00:00:00\r\n\r\n\r\nhd pornstars teens ryushare.com uploaded.net keep2share.cc fileom.com streamcloud.eu allmyvideos.net ul.to download porn movies clips \r\n\r\nUPLOADED / RYUSHARE / FILEOM / KEEP2SHARE