Teen Porn XXX Tube 3723

The best Teen sex 3727Sex Teens porn movies 3718

Posted in Amateur, HD Porn, Sex Movies, Teen | 21299 Views |


Rate this girl !!!




\r\n



DOWNLOAD

Keep2share.cc - Uploaded.net - Openload.co - Rapidu.net


http://ul.to/otng2h48/M.S.C.KRStr.mp4
http://fileom.com/t7qpllmxvsf0/M.S.C.KRStr.mp4.html
http://ryushare.com/vzyahi0m9va5/M.S.C.KRStr.mp4
http://k2s.cc/file/7755d730700aa/M.S.C.KRStr.mp4


Premium here:
uploaded.net
keep2share.cc
rapidu.net.cc


Teens related to Teen Porn XXX Tube 3723


Porn teen hd downloads 225513 ryushare uploaded keep2share

Porn teen hd downloads 225513

b f sex hot movie download ryushare uploaded keep2share

b f sex hot movie download

Sweet Teen Porn – Young Porn Videos 224227 ryushare uploaded keep2share

Sweet Teen Porn – Young Porn Videos 224227

Teenage Fuck Clips 1591 ryushare uploaded keep2share

Teenage Fuck Clips 1591

X-Angels.com Olivia ryushare uploaded keep2share

X-Angels.com Olivia

Girls sex art hd teens videos 225744 ryushare uploaded keep2share

Girls sex art hd teens videos 225744

Girls do porn downloads 4056 ryushare uploaded keep2share

Girls do porn downloads 4056

HD Sex World Videos High Definition Free Porn 225951 ryushare uploaded keep2share

HD Sex World Videos High Definition Free Porn 225951

Fresh Teen Videos 2970 ryushare uploaded keep2share

Fresh Teen Videos 2970

www HD xxxvideos downlaod com ryushare uploaded keep2share

www HD xxxvideos downlaod com

Teen Porn XXX Tube 225861 ryushare uploaded keep2share

Teen Porn XXX Tube 225861

Malena Morgan – I Don’t Sing In The Shower ryushare uploaded keep2share

Malena Morgan – I Don’t Sing In The Shower

First time Sexual Films 18 sex xxx 5107 ryushare uploaded keep2share

First time Sexual Films 18 sex xxx 5107

Teen porn movies 2976 ryushare uploaded keep2share

Teen porn movies 2976

Uploaded net porn XXX 224573 ryushare uploaded keep2share

Uploaded net porn XXX 224573

Small girls and boys porn 3511 ryushare uploaded keep2share

Small girls and boys porn 3511

sex xxx hd new 98 226668 ryushare uploaded keep2share

sex xxx hd new 98 226668

Porn HD Sex HD Teen Sex 4170 ryushare uploaded keep2share

Porn HD Sex HD Teen Sex 4170

Teen Tits Tube, Young Girls Porn Videos 5028 ryushare uploaded keep2share

Teen Tits Tube, Young Girls Porn Videos 5028

Hot download sex girls movies 5611 ryushare uploaded keep2share

Hot download sex girls movies 5611

Creampie-Angels.com Licie ryushare uploaded keep2share

Creampie-Angels.com Licie

Teen porn movies 1607 ryushare uploaded keep2share

Teen porn movies 1607

Young Virgin Pussy Teen Fuck Tube 2962 ryushare uploaded keep2share

Young Virgin Pussy Teen Fuck Tube 2962

Hd quality – Teen sex video 3819 ryushare uploaded keep2share

Hd quality – Teen sex video 3819

K Craving Lips 4 – CLIP B ryushare uploaded keep2share

K Craving Lips 4 – CLIP B

First time Sexual Films 18 sex xxx 225013 ryushare uploaded keep2share

First time Sexual Films 18 sex xxx 225013

Kathia Nobili, Meg Magic – Low Self-Esteem ryushare uploaded keep2share

Kathia Nobili, Meg Magic – Low Self-Esteem

Hot Teen Sex 3965 ryushare uploaded keep2share

Hot Teen Sex 3965

Teena Dolly – Teena Lipoldino 140 Movies ryushare uploaded keep2share

Teena Dolly – Teena Lipoldino 140 Movies

Alyona, Klara & Paloma – Strap-on Adventure ryushare uploaded keep2share

Alyona, Klara & Paloma – Strap-on Adventure

Watch Teen Sex Videos HD 1595 ryushare uploaded keep2share

Watch Teen Sex Videos HD 1595

Free Teen Porn Videos at Teen Sex Tube XXX 1416 ryushare uploaded keep2share

Free Teen Porn Videos at Teen Sex Tube XXX 1416

Wow porn hd downloads 224041 ryushare uploaded keep2share

Wow porn hd downloads 224041

College Teen Sex 3576 ryushare uploaded keep2share

College Teen Sex 3576

Handjob from cute amateur wife in hot amateur porn 3 ryushare uploaded keep2share

Handjob from cute amateur wife in hot amateur porn 3

Report broken links / Post a comment

You must be logged in to post a comment.



General\r\nComplete name : D:hd pornstars teens ryushare.com uploaded.net keep2share.cc fileom.com streamcloud.eu allmyvideos.net ul.to download porn movies clips M.S.C.KRStr.mp4\r\nFormat : MPEG-4\r\nFormat profile : Base Media\r\nCodec ID : isom\r\nFile size : 564 MiB\r\nDuration : 23mn 58s\r\nOverall bit rate : 3 287 Kbps\r\nWriting application : Lavf55.12.100\r\n\r\nVideo\r\nID : 1\r\nFormat : AVC\r\nFormat/Info : Advanced Video Codec\r\nFormat profile : [email protected]\r\nFormat settings, CABAC : No\r\nFormat settings, ReFrames : 5 frames\r\nCodec ID : avc1\r\nCodec ID/Info : Advanced Video Coding\r\nDuration : 23mn 58s\r\nBit rate : 3 154 Kbps\r\nWidth : 1 280 pixels\r\nHeight : 720 pixels\r\nDisplay aspect ratio : 16:9\r\nFrame rate mode : Constant\r\nFrame rate : 23.976 fps\r\nColor space : YUV\r\nChroma subsampling : 4:2:0\r\nBit depth : 8 bits\r\nScan type : Progressive\r\nBits/(Pixel*Frame) : 0.143\r\nStream size : 541 MiB (96%)\r\nWriting library : x264 core 138 r2358 9e941d1\r\nEncoding settings : cabac=0 / ref=5 / deblock=1:0:0 / analyse=0x1:0x111 / me=umh / subme=8 / psy=1 / psy_rd=1.00:0.00 / mixed_ref=1 / me_range=16 / chroma_me=1 / trellis=1 / 8x8dct=0 / cqm=0 / deadzone=21,11 / fast_pskip=1 / chroma_qp_offset=-2 / threads=2 / lookahead_threads=1 / sliced_threads=0 / nr=0 / decimate=1 / interlaced=0 / bluray_compat=0 / constrained_intra=0 / bframes=0 / weightp=0 / keyint=250 / keyint_min=23 / scenecut=40 / intra_refresh=0 / rc_lookahead=50 / rc=crf / mbtree=1 / crf=18.0 / qcomp=0.60 / qpmin=0 / qpmax=69 / qpstep=4 / ip_ratio=1.40 / aq=1:1.00\r\nLanguage : English\r\n\r\nAudio\r\nID : 2\r\nFormat : AAC\r\nFormat/Info : Advanced Audio Codec\r\nFormat profile : LC\r\nCodec ID : 40\r\nDuration : 23mn 58s\r\nDuration_LastFrame : -21ms\r\nBit rate mode : Constant\r\nBit rate : 128 Kbps\r\nChannel(s) : 2 channels\r\nChannel positions : Front: L R\r\nSampling rate : 44.1 KHz\r\nCompression mode : Lossy\r\nStream size : 21.9 MiB (4%)\r\nLanguage : English\r\n\r\nhd pornstars teens ryushare.com uploaded.net keep2share.cc fileom.com streamcloud.eu allmyvideos.net ul.to download porn movies clips