Teen porn movies 2976

HD Porn Teen Sex Videos 29798 Teen XXX - Teen Sex 2973

Posted in Amateur, HD Porn, Sex Movies, Teen | 11897 Views |


Rate this girl !!!




\r\n4.jpeg\r\n\r\nLink(723 Mb||14:54||1920*1080||MP4)



DOWNLOAD

Keep2share.cc - Uploaded.net - Openload.co - Rapidu.net


http://k2s.cc/file/441e5eb19b1de/NBSGMkz.mp4
http://ryushare.com/wkshm2ypdzj9/NBSGMkz.mp4
http://ul.to/8xfqtqyc/NBSGMkz.mp4


Premium here:
uploaded.net
keep2share.cc
rapidu.net.cc


Teens related to Teen porn movies 2976


Hd young videos 3854 ryushare uploaded keep2share

Hd young videos 3854

Wow porn tube movies 4428 ryushare uploaded keep2share

Wow porn tube movies 4428

[CzechCasting.com / CzechAV.com] Jirina ryushare uploaded keep2share

[CzechCasting.com / CzechAV.com] Jirina

Teen porn movies 3390 ryushare uploaded keep2share

Teen porn movies 3390

Young Sex Movies 5695 ryushare uploaded keep2share

Young Sex Movies 5695

Chelsea – First & Forever ryushare uploaded keep2share

Chelsea – First & Forever

Sex with brunette in the kitchen ryushare uploaded keep2share

Sex with brunette in the kitchen

Www Xxxsex video18 ryushare uploaded keep2share

Www Xxxsex video18

Hot hd teen sex videos 3748 ryushare uploaded keep2share

Hot hd teen sex videos 3748

Hot Teen Sex HD videos 225252 ryushare uploaded keep2share

Hot Teen Sex HD videos 225252

Teen porn movies 1909 ryushare uploaded keep2share

Teen porn movies 1909

Kiki Vidis ryushare uploaded keep2share

Kiki Vidis

Hot Teen Sex 2747 ryushare uploaded keep2share

Hot Teen Sex 2747

Www porn movie mkv download com 226307 ryushare uploaded keep2share

Www porn movie mkv download com 226307

www 18year grils sex vedios 226269 ryushare uploaded keep2share

www 18year grils sex vedios 226269

sex compress videos 226457 ryushare uploaded keep2share

sex compress videos 226457

Sweet Teen Porn – Young Porn Videos 224270 ryushare uploaded keep2share

Sweet Teen Porn – Young Porn Videos 224270

Wow porn tube movies 223856 ryushare uploaded keep2share

Wow porn tube movies 223856

young prom xxx sex video hd download ryushare uploaded keep2share

young prom xxx sex video hd download

fast tiam movie hot xxx hd free 226715 ryushare uploaded keep2share

fast tiam movie hot xxx hd free 226715

download 720p short video clips asiancandyshop com 226341 ryushare uploaded keep2share

download 720p short video clips asiancandyshop com 226341

Marry – Time To Myself – Nubiles ryushare uploaded keep2share

Marry – Time To Myself – Nubiles

Sweet Teen Porn – Teena Dolly ryushare uploaded keep2share

Sweet Teen Porn – Teena Dolly

Good Teen Tube Sexy Young Naked Girls Movies 223843 ryushare uploaded keep2share

Good Teen Tube Sexy Young Naked Girls Movies 223843

xxxxsexvideo 226647 ryushare uploaded keep2share

xxxxsexvideo 226647

Adele Sunshine – George on Adele ryushare uploaded keep2share

Adele Sunshine – George on Adele

X-art Scarlet Jayden Blindfold me part2 ryushare uploaded keep2share

X-art Scarlet Jayden Blindfold me part2

Hot Teen Sex HD videos 2172 ryushare uploaded keep2share

Hot Teen Sex HD videos 2172

Young XXX Tube Videos 2288 ryushare uploaded keep2share

Young XXX Tube Videos 2288

HQ hd full xxx video free download 226615 ryushare uploaded keep2share

HQ hd full xxx video free download 226615

new fuck photo hd download ryushare uploaded keep2share

new fuck photo hd download

Sex and lots of milk ryushare uploaded keep2share

Sex and lots of milk

Young XXX Tube Videos 3540 ryushare uploaded keep2share

Young XXX Tube Videos 3540

Nude Teens fucking hard 4199 ryushare uploaded keep2share

Nude Teens fucking hard 4199

Franziska Facella – Sparkle For Me ryushare uploaded keep2share

Franziska Facella – Sparkle For Me

Report broken links / Post a comment

You must be logged in to post a comment.



General\r\nComplete name : D:HD Porn Teens Sex movies tube online downloadNBSGMkz.mp4\r\nFormat : MPEG-4\r\nFormat profile : Base Media\r\nCodec ID : isom\r\nFile size : 723 MiB\r\nDuration : 14mn 54s\r\nOverall bit rate mode : Variable\r\nOverall bit rate : 6 779 Kbps\r\nWriting application : Lavf55.19.104\r\n\r\nVideo\r\nID : 1\r\nFormat : AVC\r\nFormat/Info : Advanced Video Codec\r\nFormat profile : [email protected]\r\nFormat settings, CABAC : Yes\r\nFormat settings, ReFrames : 4 frames\r\nCodec ID : avc1\r\nCodec ID/Info : Advanced Video Coding\r\nDuration : 14mn 54s\r\nBit rate : 6 618 Kbps\r\nWidth : 1 920 pixels\r\nHeight : 1 080 pixels\r\nDisplay aspect ratio : 16:9\r\nFrame rate mode : Constant\r\nFrame rate : 29.970 fps\r\nColor space : YUV\r\nChroma subsampling : 4:2:0\r\nBit depth : 8 bits\r\nScan type : Progressive\r\nBits/(Pixel*Frame) : 0.106\r\nStream size : 706 MiB (98%)\r\nWriting library : x264 core 138\r\nEncoding settings : cabac=1 / ref=2 / deblock=1:-1:-1 / analyse=0x1:0x111 / me=umh / subme=8 / psy=1 / psy_rd=1.00:0.15 / mixed_ref=1 / me_range=16 / chroma_me=1 / trellis=1 / 8x8dct=0 / cqm=0 / deadzone=21,11 / fast_pskip=1 / chroma_qp_offset=-3 / threads=2 / lookahead_threads=1 / sliced_threads=0 / nr=0 / decimate=1 / interlaced=0 / bluray_compat=0 / constrained_intra=0 / bframes=3 / b_pyramid=2 / b_adapt=2 / b_bias=0 / direct=3 / weightb=1 / open_gop=0 / weightp=0 / keyint=250 / keyint_min=25 / scenecut=40 / intra_refresh=0 / rc_lookahead=50 / rc=crf / mbtree=1 / crf=18.0 / qcomp=0.60 / qpmin=0 / qpmax=69 / qpstep=4 / ip_ratio=1.40 / aq=1:1.00\r\nLanguage : English\r\n\r\nAudio\r\nID : 2\r\nFormat : AAC\r\nFormat/Info : Advanced Audio Codec\r\nFormat profile : LC\r\nCodec ID : 40\r\nDuration : 14mn 54s\r\nDuration_LastFrame : -6ms\r\nBit rate mode : Variable\r\nBit rate : 152 Kbps\r\nMaximum bit rate : 196 Kbps\r\nChannel(s) : 2 channels\r\nChannel positions : Front: L R\r\nSampling rate : 44.1 KHz\r\nCompression mode : Lossy\r\nStream size : 16.2 MiB (2%)\r\nLanguage : English\r\n\r\n