Teen acrobat sex

Sex and lots of milkBig tits blonde with pierced nipples

Posted in Amateur, HD Porn, Sex Movies, Teen | 17573 Views |


Rate this girl !!!




\r\n\r\n\r\n\r\n\r\n\r\n Link(875 Mb||19:17||1920*1080||MPG) \r\n\r\nTeen acrobat sex



DOWNLOAD

Keep2share.cc - Uploaded.net - Openload.co - Rapidu.net


http://keep2share.cc/file/52e5d373d4f27
http://ryushare.com/fsds7qjkj5sd/DPHRDbl.rar
http://ul.to/ywxzjb3x


Premium here:
uploaded.net
keep2share.cc
rapidu.net.cc

Teens related to Teen acrobat sex


wwwxxxsexvedios 226609 ryushare uploaded keep2share

wwwxxxsexvedios 226609

Free High Quality Sex Movies 3862 ryushare uploaded keep2share

Free High Quality Sex Movies 3862

Teen porn xxx 225534 ryushare uploaded keep2share

Teen porn xxx 225534

Hot Teen Sex HD videos 2354 ryushare uploaded keep2share

Hot Teen Sex HD videos 2354

Free High Quality Sex Movies 1698 ryushare uploaded keep2share

Free High Quality Sex Movies 1698

Hd young videos 1872 ryushare uploaded keep2share

Hd young videos 1872

Kaliiirose fucking 226142 ryushare uploaded keep2share

Kaliiirose fucking 226142

Sex in bed with beautiful redhead ryushare uploaded keep2share

Sex in bed with beautiful redhead

Teen Tits Tube, Young Girls Porn Videos 224090 ryushare uploaded keep2share

Teen Tits Tube, Young Girls Porn Videos 224090

Porn party teen girls 225405 ryushare uploaded keep2share

Porn party teen girls 225405

Chelsea – First & Forever ryushare uploaded keep2share

Chelsea – First & Forever

Nicole – Summertime sex hookup ryushare uploaded keep2share

Nicole – Summertime sex hookup

xxx sexy moovi pchd download ryushare uploaded keep2share

xxx sexy moovi pchd download

Teenies Videos – Teen Porn, Teen Sex, XXX Free Videos 1601 ryushare uploaded keep2share

Teenies Videos – Teen Porn, Teen Sex, XXX Free Videos 1601

Uploaded net porn XXX 224971 ryushare uploaded keep2share

Uploaded net porn XXX 224971

Xxxsexvidoa comhd ryushare uploaded keep2share

Xxxsexvidoa comhd

Xxx 888 226518 ryushare uploaded keep2share

Xxx 888 226518

Young Virgin Pussy Teen Fuck Tube 2315 ryushare uploaded keep2share

Young Virgin Pussy Teen Fuck Tube 2315

www sexhd-yesxxx com 226556 ryushare uploaded keep2share

www sexhd-yesxxx com 226556

download pc porno movie ryushare uploaded keep2share

download pc porno movie

cina video hdxxx 226321 ryushare uploaded keep2share

cina video hdxxx 226321

Tube xxx 224403 ryushare uploaded keep2share

Tube xxx 224403

Gianna – Real Blonde Love Doll Screws Her BF ryushare uploaded keep2share

Gianna – Real Blonde Love Doll Screws Her BF

Young xxx 225287 ryushare uploaded keep2share

Young xxx 225287

Teen Sex Movies 224085 ryushare uploaded keep2share

Teen Sex Movies 224085

Movies Young legal porn 224316 ryushare uploaded keep2share

Movies Young legal porn 224316

Jada – A Manwhore For Me ryushare uploaded keep2share

Jada – A Manwhore For Me

world hd sex clips 226188 ryushare uploaded keep2share

world hd sex clips 226188

Girls sex art hd teens videos 224625 ryushare uploaded keep2share

Girls sex art hd teens videos 224625

Low mb full hd sex video download 226510 ryushare uploaded keep2share

Low mb full hd sex video download 226510

edge orgasm ryushare uploaded keep2share

edge orgasm

Free High Quality Sex Movies 3731 ryushare uploaded keep2share

Free High Quality Sex Movies 3731

grace c Creampie-Angels ryushare uploaded keep2share

grace c Creampie-Angels

Free High Quality Sex Movies 4635 ryushare uploaded keep2share

Free High Quality Sex Movies 4635

Free Young Porn Videos XXX Teen Porn 223975 ryushare uploaded keep2share

Free Young Porn Videos XXX Teen Porn 223975

Report broken links / Post a comment

You must be logged in to post a comment.



General\r\nComplete name : D:Teen acrobat sexDPHRDblDPHRDbl.mpg\r\nFormat : MPEG-PS\r\nFile size : 875 MiB\r\nDuration : 19mn 17s\r\nOverall bit rate mode : Variable\r\nOverall bit rate : 6 345 Kbps\r\n\r\nVideo\r\nID : 224 (0xE0)\r\nFormat : MPEG Video\r\nFormat version : Version 1\r\nFormat settings, BVOP : No\r\nFormat settings, Matrix : Default\r\nFormat settings, GOP : N=12\r\nDuration : 19mn 17s\r\nBit rate mode : Variable\r\nBit rate : 6 090 Kbps\r\nWidth : 1 920 pixels\r\nHeight : 1 080 pixels\r\nDisplay aspect ratio : 16:9\r\nFrame rate : 24.000 fps\r\nColor space : YUV\r\nChroma subsampling : 4:2:0\r\nBit depth : 8 bits\r\nScan type : Progressive\r\nCompression mode : Lossy\r\nBits/(Pixel*Frame) : 0.122\r\nTime code of first frame : 00:00:00:00\r\nTime code source : Group of pictures header\r\nStream size : 840 MiB (96%)\r\n\r\nAudio\r\nID : 192 (0xC0)\r\nFormat : MPEG Audio\r\nFormat version : Version 1\r\nFormat profile : Layer 2\r\nDuration : 19mn 17s\r\nBit rate mode : Constant\r\nBit rate : 128 Kbps\r\nChannel(s) : 2 channels\r\nSampling rate : 48.0 KHz\r\nCompression mode : Lossy\r\nStream size : 17.7 MiB (2%)\r\n\r\n