Teen 18 Porn XXX Clips Naked 3853

Teenage Fuck Clips 4003Young XXX Tube Videos 3807

Posted in HD Porn, Pornstar, Sex Movies, Teen | 30120 Views |


Rate this girl !!!




cover

\r\n

1920x1080p / MP4 / 1.1 GB

\r\n

UPLOADED / RYUSHARE / FILEOM / KEEP2SHARE

\r\n \r\n

SCREENSHOTS:

\r\n

screens

\r\n



DOWNLOAD

Keep2share.cc - Uploaded.net - Openload.co - Rapidu.net


http://fileom.com/do8n0ne3wfp0/bre.4kf.4st_in_b3d_1.9.0.mp4.html
http://ryushare.com/xcpai2exwxh7/bre.4kf.4st_in_b3d_1.9.0.mp4
http://ul.to/rkraqcp7/bre.4kf.4st_in_b3d_1.9.0.mp4


Premium here:
uploaded.net
keep2share.cc
rapidu.net.cc


Teens related to Teen 18 Porn XXX Clips Naked 3853


Hardcore sex videos in the high definition quality 224598 ryushare uploaded keep2share

Hardcore sex videos in the high definition quality 224598

Porn HD Sex HD Teen Sex 224857 ryushare uploaded keep2share

Porn HD Sex HD Teen Sex 224857

xvideo teen mania 226536 ryushare uploaded keep2share

xvideo teen mania 226536

Hardcore sex videos in the high definition quality 5010 ryushare uploaded keep2share

Hardcore sex videos in the high definition quality 5010

Sara Luvv, Teddi Rae ryushare uploaded keep2share

Sara Luvv, Teddi Rae

The best Teen sex 224192 ryushare uploaded keep2share

The best Teen sex 224192

hd small mbporn video sites 226424 ryushare uploaded keep2share

hd small mbporn video sites 226424

Hd quality – Teen sex video 225851 ryushare uploaded keep2share

Hd quality – Teen sex video 225851

Rocco Orgy ryushare uploaded keep2share

Rocco Orgy

www xvedeo comhd ryushare uploaded keep2share

www xvedeo comhd

Free Teen Porn Videos at Teen Sex Tube XXX 3958 ryushare uploaded keep2share

Free Teen Porn Videos at Teen Sex Tube XXX 3958

TeensAnalyzed – Nanette – Taking You Closer To Anal [FullHD 1080p] ryushare uploaded keep2share

TeensAnalyzed – Nanette – Taking You Closer To Anal [FullHD 1080p]

Young Virgin Pussy Teen Fuck Tube 2308 ryushare uploaded keep2share

Young Virgin Pussy Teen Fuck Tube 2308

Hardcore Sex Hub 4983 ryushare uploaded keep2share

Hardcore Sex Hub 4983

real virgin Teent pussy image Hd com ryushare uploaded keep2share

real virgin Teent pussy image Hd com

Nude Teens fucking hard 225375 ryushare uploaded keep2share

Nude Teens fucking hard 225375

Ariana Marie – Post Workout Sex ryushare uploaded keep2share

Ariana Marie – Post Workout Sex

Two Teasing Tongues 9 ryushare uploaded keep2share

Two Teasing Tongues 9

Gina Gerson and Victoria Daniels ryushare uploaded keep2share

Gina Gerson and Victoria Daniels

teen mega world HQ HD pron hub sex video free download net 226482 ryushare uploaded keep2share

teen mega world HQ HD pron hub sex video free download net 226482

Free Teen Porn Videos at Teen Sex Tube XXX 225428 ryushare uploaded keep2share

Free Teen Porn Videos at Teen Sex Tube XXX 225428

Wow girls downloads hd 224506 ryushare uploaded keep2share

Wow girls downloads hd 224506

Foxy Di – I’m all yours ryushare uploaded keep2share

Foxy Di – I’m all yours

Hot hd teen sex videos 3484 ryushare uploaded keep2share

Hot hd teen sex videos 3484

yangs xxxhd89 226700 ryushare uploaded keep2share

yangs xxxhd89 226700

xxxnx videos hd 18 con 226659 ryushare uploaded keep2share

xxxnx videos hd 18 con 226659

Chinara, Peachy – Cum And Be Happy ryushare uploaded keep2share

Chinara, Peachy – Cum And Be Happy

HD Sex World Videos High Definition Free Porn 5342 ryushare uploaded keep2share

HD Sex World Videos High Definition Free Porn 5342

Porn HD Sex HD Teen Sex 4153 ryushare uploaded keep2share

Porn HD Sex HD Teen Sex 4153

Teen xxx sex hd 225384 ryushare uploaded keep2share

Teen xxx sex hd 225384

Teen Sex Videos Tube Movies 225164 ryushare uploaded keep2share

Teen Sex Videos Tube Movies 225164

Wow girls downloads hd 5433 ryushare uploaded keep2share

Wow girls downloads hd 5433

Tube Young Sex 224693 ryushare uploaded keep2share

Tube Young Sex 224693

21Naturals Sweet Cat ryushare uploaded keep2share

21Naturals Sweet Cat

Teenage Fuck Clips 1591 ryushare uploaded keep2share

Teenage Fuck Clips 1591

Report broken links / Post a comment

You must be logged in to post a comment.



General\r\nComplete name : D:hd tube amateur porn young girls sex direct download online movies clips\r\nryushare.com uploaded.net keep2share.cc fileom.com streamcloud.eu allmyvideos.net ul.to download porn movies clipnubilefilms_breakfast_in_bed_1920.mp4\r\nFormat : MPEG-4\r\nFormat profile : Base Media\r\nCodec ID : isom\r\nFile size : 1.10 GiB\r\nDuration : 18mn 22s\r\nOverall bit rate mode : Variable\r\nOverall bit rate : 8 581 Kbps\r\nWriting application : Lavf55.16.102\r\n\r\nVideo\r\nID : 1\r\nFormat : AVC\r\nFormat/Info : Advanced Video Codec\r\nFormat profile : [email protected]\r\nFormat settings, CABAC : Yes\r\nFormat settings, ReFrames : 4 frames\r\nCodec ID : avc1\r\nCodec ID/Info : Advanced Video Coding\r\nDuration : 18mn 22s\r\nBit rate : 8 423 Kbps\r\nWidth : 1 920 pixels\r\nHeight : 1 080 pixels\r\nDisplay aspect ratio : 16:9\r\nFrame rate mode : Constant\r\nFrame rate : 23.976 fps\r\nColor space : YUV\r\nChroma subsampling : 4:2:0\r\nBit depth : 8 bits\r\nScan type : Progressive\r\nBits/(Pixel*Frame) : 0.169\r\nStream size : 1.08 GiB (98%)\r\nWriting library : x264 core 123 r2189 35cf912\r\nEncoding settings : cabac=1 / ref=2 / deblock=1:-1:-1 / analyse=0x1:0x111 / me=umh / subme=8 / psy=1 / psy_rd=1.00:0.15 / mixed_ref=1 / me_range=16 / chroma_me=1 / trellis=1 / 8x8dct=0 / cqm=0 / deadzone=21,11 / fast_pskip=1 / chroma_qp_offset=-3 / threads=10 / sliced_threads=0 / nr=0 / decimate=1 / interlaced=0 / bluray_compat=0 / constrained_intra=0 / bframes=3 / b_pyramid=2 / b_adapt=2 / b_bias=0 / direct=3 / weightb=1 / open_gop=0 / weightp=0 / keyint=250 / keyint_min=23 / scenecut=40 / intra_refresh=0 / rc_lookahead=50 / rc=crf / mbtree=1 / crf=18.0 / qcomp=0.60 / qpmin=0 / qpmax=69 / qpstep=4 / ip_ratio=1.40 / aq=1:1.00\r\nLanguage : English\r\n\r\nAudio\r\nID : 2\r\nFormat : AAC\r\nFormat/Info : Advanced Audio Codec\r\nFormat profile : LC\r\nCodec ID : 40\r\nDuration : 18mn 22s\r\nDuration_LastFrame : -7ms\r\nBit rate mode : Variable\r\nBit rate : 152 Kbps\r\nMaximum bit rate : 196 Kbps\r\nChannel(s) : 2 channels\r\nChannel positions : Front: L R\r\nSampling rate : 44.1 KHz\r\nCompression mode : Lossy\r\nStream size : 20.0 MiB (2%)\r\nLanguage : English\r\n\r\nhd tube amateur porn young girls sex direct download online movies clips\r\nryushare.com uploaded.net keep2share.cc fileom.com streamcloud.eu allmyvideos.net ul.to download porn movies clip\r\n\r\nRAPIDGATOR / UPLOADED / UPLOADABLE / KEEP2SHARE\r\nUPLOADED / RYUSHARE / FILEOM / KEEP2SHARE\r\n