Teen 18 Porn XXX Clips Naked 3075

Valentina Nappi - La Dolce VitaA Busty Takes A Biggie - Connie

Posted in HD Porn, Lesbian, Pornstar, Sex Movies, Teen | 12268 Views |


Rate this girl !!!




Avrіl Nall & Dіllіon Narrer – Keeping In ShapeWebYoung.com g.Lesbians 2013, Oral Sex, Close Ups, Breasts, Shaved\r\n\r\npic\r\n\r\n \r\n\r\npic\r\n\r\nHD Video Type: 1080p Video Format: MP4 Video codec: H.264/AVC Audio codec: AACProdolzhitelnost: 00:20:19 Video: AVC (AVC), 6652 Kbps, 29.970 fps Audio: AAC (AAC LC), 123 Kbps , 44.1 KHz\r\n\r\n 



DOWNLOAD

Keep2share.cc - Uploaded.net - Openload.co - Rapidu.net


http://ul.to/yqqczxy8/k33ping.Sh4pe.mp4
http://k2s.cc/file/9594e4a662675/k33ping.Sh4pe.mp4


Premium here:
uploaded.net
keep2share.cc
rapidu.net.cc


Teens related to Teen 18 Porn XXX Clips Naked 3075


Teenage Fuck Clips 2332 ryushare uploaded keep2share

Teenage Fuck Clips 2332

Teenage Fuck Clips 3782 ryushare uploaded keep2share

Teenage Fuck Clips 3782

Tube xxx 5014 ryushare uploaded keep2share

Tube xxx 5014

Hot teen ryushare uploaded keep2share

Hot teen

Good Teen Tube Sexy Young Naked Girls Movies 225959 ryushare uploaded keep2share

Good Teen Tube Sexy Young Naked Girls Movies 225959

Sara Luvv (Every Inch) ryushare uploaded keep2share

Sara Luvv (Every Inch)

www english hd and hq xxx moves com ryushare uploaded keep2share

www english hd and hq xxx moves com

www xxxx video donlood hd 226672 ryushare uploaded keep2share

www xxxx video donlood hd 226672

Beautiful model ryushare uploaded keep2share

Beautiful model

Watch Teen Sex Videos HD 225363 ryushare uploaded keep2share

Watch Teen Sex Videos HD 225363

www hdbrazzers vedios download ryushare uploaded keep2share

www hdbrazzers vedios download

nude hot 226040 ryushare uploaded keep2share

nude hot 226040

Young teens tube hot girls free porn video 1951 ryushare uploaded keep2share

Young teens tube hot girls free porn video 1951

Girls do porn downloads 3844 ryushare uploaded keep2share

Girls do porn downloads 3844

YoungCourtesans.com Shakti – Special Sex Arrangement ryushare uploaded keep2share

YoungCourtesans.com Shakti – Special Sex Arrangement

Amateur Teen Sex 4729 ryushare uploaded keep2share

Amateur Teen Sex 4729

Good Teen Tube Sexy Young Naked Girls Movies 225111 ryushare uploaded keep2share

Good Teen Tube Sexy Young Naked Girls Movies 225111

low quality of sex video 226074 ryushare uploaded keep2share

low quality of sex video 226074

Wow porn tube movies 225566 ryushare uploaded keep2share

Wow porn tube movies 225566

Watch Teen Sex Videos HD 224129 ryushare uploaded keep2share

Watch Teen Sex Videos HD 224129

Good Teen Tube Sexy Young Naked Girls Movies 225833 ryushare uploaded keep2share

Good Teen Tube Sexy Young Naked Girls Movies 225833

High Definition Movies on HD 224619 ryushare uploaded keep2share

High Definition Movies on HD 224619

Analized.com] Kate England (Kate Englands Ass Punished by Huge Black Cock) [2016 г., All Sex, Anal, 720p] ryushare uploaded keep2share

Analized.com] Kate England (Kate Englands Ass Punished by Huge Black Cock) [2016 г., All Sex, Anal, 720p]

Porno lesbian young teens movies 4143 ryushare uploaded keep2share

Porno lesbian young teens movies 4143

www fist timrs sex x videos com 226534 ryushare uploaded keep2share

www fist timrs sex x videos com 226534

foto xxx porn girl ryushare uploaded keep2share

foto xxx porn girl

Tina Blade, Marica Hase – Spurts of love ryushare uploaded keep2share

Tina Blade, Marica Hase – Spurts of love

Hardcore sex videos in the high definition quality 223782 ryushare uploaded keep2share

Hardcore sex videos in the high definition quality 223782

x videos mobi hd ryushare uploaded keep2share

x videos mobi hd

www xxxnewvideo hd com ryushare uploaded keep2share

www xxxnewvideo hd com

Teen acrobat sex ryushare uploaded keep2share

Teen acrobat sex

Hardcore sex videos in the high definition quality 3617 ryushare uploaded keep2share

Hardcore sex videos in the high definition quality 3617

Silvie Luca – Give And Take ryushare uploaded keep2share

Silvie Luca – Give And Take

xxx move 4mb 226200 ryushare uploaded keep2share

xxx move 4mb 226200

Free Porn Videos Xxx Movies Pussy Porn 1549 ryushare uploaded keep2share

Free Porn Videos Xxx Movies Pussy Porn 1549

Report broken links / Post a comment

You must be logged in to post a comment.



General\r\nComplete name : D:HD Porn Teens Sex download movies tube online tubek33ping.Sh4pe.mp4\r\nFormat : MPEG-4\r\nFormat profile : Base Media\r\nCodec ID : isom\r\nFile size : 986 MiB\r\nDuration : 20mn 19s\r\nOverall bit rate mode : Variable\r\nOverall bit rate : 6 781 Kbps\r\nEncoded date : UTC 1970-01-01 00:00:00\r\nTagged date : UTC 1970-01-01 00:00:00\r\nWriting application : Lavf52.93.0\r\n\r\nVideo\r\nID : 1\r\nFormat : AVC\r\nFormat/Info : Advanced Video Codec\r\nFormat profile : [email protected]\r\nFormat settings, CABAC : Yes\r\nFormat settings, ReFrames : 4 frames\r\nCodec ID : avc1\r\nCodec ID/Info : Advanced Video Coding\r\nDuration : 20mn 19s\r\nBit rate : 6 800 Kbps\r\nWidth : 1 920 pixels\r\nHeight : 1 080 pixels\r\nDisplay aspect ratio : 16:9\r\nFrame rate mode : Constant\r\nFrame rate : 29.970 fps\r\nColor space : YUV\r\nChroma subsampling : 4:2:0\r\nBit depth : 8 bits\r\nScan type : Progressive\r\nBits/(Pixel*Frame) : 0.109\r\nStream size : 967 MiB (98%)\r\nWriting library : x264 core 107\r\nEncoding settings : cabac=1 / ref=3 / deblock=1:0:0 / analyse=0x3:0x113 / me=umh / subme=6 / psy=1 / psy_rd=1.00:0.00 / mixed_ref=1 / me_range=16 / chroma_me=1 / trellis=0 / 8x8dct=1 / cqm=0 / deadzone=21,11 / fast_pskip=1 / chroma_qp_offset=-2 / threads=1 / sliced_threads=0 / nr=0 / decimate=1 / interlaced=0 / constrained_intra=0 / bframes=2 / b_pyramid=2 / b_adapt=2 / b_bias=0 / direct=2 / weightb=1 / open_gop=0 / weightp=0 / keyint=30 / keyint_min=16 / scenecut=0 / intra_refresh=0 / rc_lookahead=30 / rc=abr / mbtree=1 / bitrate=6800 / ratetol=1.0 / qcomp=0.60 / qpmin=1 / qpmax=31 / qpstep=4 / ip_ratio=1.41 / aq=1:1.00\r\nLanguage : English\r\nEncoded date : UTC 1970-01-01 00:00:00\r\nTagged date : UTC 1970-01-01 00:00:00\r\n\r\nAudio\r\nID : 2\r\nFormat : AAC\r\nFormat/Info : Advanced Audio Codec\r\nFormat profile : LC\r\nCodec ID : 40\r\nDuration : 20mn 19s\r\nBit rate mode : Variable\r\nBit rate : 123 Kbps\r\nChannel(s) : 2 channels\r\nChannel positions : Front: L R\r\nSampling rate : 44.1 KHz\r\nCompression mode : Lossy\r\nStream size : 17.8 MiB (2%)\r\nLanguage : English\r\nEncoded date : UTC 1970-01-01 00:00:00\r\nTagged date : UTC 1970-01-01 00:00:00\r\n\r\n