Teen 18 Porn XXX Clips Naked 2084

Teen Sex Videos Tube Movies 2090Alice March - Smooth as Silk

Posted in HD Porn, Pornstar, Sex Movies, Teen | 34258 Views |


Rate this girl !!!




\r\n\r\n\r\n\r\n\r\n \r\n\r\nhttp://img103.imagetwist.com/i/05464/n5p05o5hgb11.jpeg\r\n\r\n Link(753 Mb||26:26||1920*1080||MP4) \r\n\r\n 



DOWNLOAD

Keep2share.cc - Uploaded.net - Openload.co - Rapidu.net


http://ryushare.com/fc4vg39kioqz/GSNPCBtn.mp4
http://ul.to/91djj5k2/GSNPCBtn.mp4


Premium here:
uploaded.net
keep2share.cc
rapidu.net.cc


Teens related to Teen 18 Porn XXX Clips Naked 2084


89 com hd vedeos 226744 ryushare uploaded keep2share

89 com hd vedeos 226744

Sweet Teen Porn – Young Porn Videos 4437 ryushare uploaded keep2share

Sweet Teen Porn – Young Porn Videos 4437

Watch Teen Sex Videos HD 225144 ryushare uploaded keep2share

Watch Teen Sex Videos HD 225144

The best Teen sex 225079 ryushare uploaded keep2share

The best Teen sex 225079

Young teens tube hot girls free porn video 5384 ryushare uploaded keep2share

Young teens tube hot girls free porn video 5384

HD Porn Teen Sex Videos 1629 ryushare uploaded keep2share

HD Porn Teen Sex Videos 1629

Fat Cock vs Horny Pussies ryushare uploaded keep2share

Fat Cock vs Horny Pussies

Teens fucked doggy style ryushare uploaded keep2share

Teens fucked doggy style

Wow Porn Movies download) 225955 ryushare uploaded keep2share

Wow Porn Movies download) 225955

Young xxx 225438 ryushare uploaded keep2share

Young xxx 225438

[AbbyWinters.com] Sasha R. ryushare uploaded keep2share

[AbbyWinters.com] Sasha R.

Young Sex Movies 5605 ryushare uploaded keep2share

Young Sex Movies 5605

Sweet Teen Porn – Young Porn Videos 4327 ryushare uploaded keep2share

Sweet Teen Porn – Young Porn Videos 4327

Sweet Teen Porn – Young Porn Videos 4113 ryushare uploaded keep2share

Sweet Teen Porn – Young Porn Videos 4113

yunga grls porn sex com ryushare uploaded keep2share

yunga grls porn sex com

fuck from behind 226023 ryushare uploaded keep2share

fuck from behind 226023

Teen Sex Videos Tube Movies 3048 ryushare uploaded keep2share

Teen Sex Videos Tube Movies 3048

xxx hd virgin video downloed com 226500 ryushare uploaded keep2share

xxx hd virgin video downloed com 226500

ww pink world net ryushare uploaded keep2share

ww pink world net

Connie – More Than I Could Wish Forpic ryushare uploaded keep2share

Connie – More Than I Could Wish Forpic

Download young porn sex 224839 ryushare uploaded keep2share

Download young porn sex 224839

www xxx hb movi 226762 ryushare uploaded keep2share

www xxx hb movi 226762

Daisy, Jasmine – Boats n Hoes ryushare uploaded keep2share

Daisy, Jasmine – Boats n Hoes

xxx sex hd video mp4 226455 ryushare uploaded keep2share

xxx sex hd video mp4 226455

gibitube com porn 226071 ryushare uploaded keep2share

gibitube com porn 226071

8 Teen XXX – Teen Sex 1309 ryushare uploaded keep2share

8 Teen XXX – Teen Sex 1309

film sexx japan hd mqnia 226026 ryushare uploaded keep2share

film sexx japan hd mqnia 226026

Teen Sex Movies Young Porn Tube Vids 5659 ryushare uploaded keep2share

Teen Sex Movies Young Porn Tube Vids 5659

Teen porn movies 225220 ryushare uploaded keep2share

Teen porn movies 225220

Uploaded net porn XXX 224151 ryushare uploaded keep2share

Uploaded net porn XXX 224151

www xxx hq sex 2014 com ryushare uploaded keep2share

www xxx hq sex 2014 com

free sex tubes direct download 226472 ryushare uploaded keep2share

free sex tubes direct download 226472

Teen Sex Movies Young Porn Tube Vids 225825 ryushare uploaded keep2share

Teen Sex Movies Young Porn Tube Vids 225825

HD Porn Teen Sex Videos 225563 ryushare uploaded keep2share

HD Porn Teen Sex Videos 225563

HQ Sex Movies Download 225197 ryushare uploaded keep2share

HQ Sex Movies Download 225197

Report broken links / Post a comment

You must be logged in to post a comment.



General\r\nComplete name : D:HD Teens Download Porn Sex clips movies TubeGSNPCBtn.mp4\r\nFormat : MPEG-4\r\nFormat profile : Base Media\r\nCodec ID : isom\r\nFile size : 753 MiB\r\nDuration : 26mn 26s\r\nOverall bit rate mode : Variable\r\nOverall bit rate : 3 982 Kbps\r\nWriting application : Lavf55.12.100\r\n\r\nVideo\r\nID : 1\r\nFormat : AVC\r\nFormat/Info : Advanced Video Codec\r\nFormat profile : [email protected]\r\nFormat settings, CABAC : Yes\r\nFormat settings, ReFrames : 5 frames\r\nCodec ID : avc1\r\nCodec ID/Info : Advanced Video Coding\r\nDuration : 26mn 26s\r\nBit rate : 3 871 Kbps\r\nWidth : 1 920 pixels\r\nHeight : 1 080 pixels\r\nDisplay aspect ratio : 16:9\r\nFrame rate mode : Constant\r\nFrame rate : 29.970 fps\r\nColor space : YUV\r\nChroma subsampling : 4:2:0\r\nBit depth : 8 bits\r\nScan type : Progressive\r\nBits/(Pixel*Frame) : 0.062\r\nStream size : 732 MiB (97%)\r\nWriting library : x264 core 138\r\nEncoding settings : cabac=1 / ref=5 / deblock=1:-1:-1 / analyse=0x3:0x113 / me=umh / subme=8 / psy=1 / psy_rd=1.00:0.15 / mixed_ref=1 / me_range=16 / chroma_me=1 / trellis=1 / 8x8dct=1 / cqm=0 / deadzone=21,11 / fast_pskip=1 / chroma_qp_offset=-3 / threads=24 / lookahead_threads=4 / sliced_threads=0 / nr=0 / decimate=1 / interlaced=0 / bluray_compat=0 / constrained_intra=0 / bframes=3 / b_pyramid=2 / b_adapt=2 / b_bias=0 / direct=3 / weightb=1 / open_gop=0 / weightp=2 / keyint=250 / keyint_min=25 / scenecut=40 / intra_refresh=0 / rc_lookahead=50 / rc=crf / mbtree=1 / crf=20.0 / qcomp=0.60 / qpmin=0 / qpmax=69 / qpstep=4 / ip_ratio=1.40 / aq=1:1.00\r\nLanguage : Russian\r\n\r\nAudio\r\nID : 2\r\nFormat : AAC\r\nFormat/Info : Advanced Audio Codec\r\nFormat profile : LC\r\nCodec ID : 40\r\nDuration : 26mn 26s\r\nBit rate mode : Variable\r\nBit rate : 101 Kbps\r\nMaximum bit rate : 192 Kbps\r\nChannel(s) : 2 channels\r\nChannel positions : Front: L R\r\nSampling rate : 44.1 KHz\r\nCompression mode : Lossy\r\nStream size : 19.2 MiB (3%)\r\nLanguage : Russian\r\n\r\n