Taissia A – Bed of Roses

Nancey – Dreams Come To LifeAmarna Miller & Juan Lucho – Que Es La Pasion

Posted in HD Porn, Pornstar, Sex Movies, Teen | 8272 Views |


Rate this girl !!!




[SexArt.com] Taissia A – Bed of Roses

\r\n

cover

\r\n

1920x1080p / MP4 / 1,19 GB

\r\n

SCREENSHOTS:

\r\n

screens



DOWNLOAD

Keep2share.cc - Uploaded.net - Openload.co - Rapidu.net


http://fileom.com/6xretdbcj6e9/B3d-0f-R0s3s_S3x4rt-1080p.mp4.html
http://ul.to/9o6ayx5b/B3d-0f-R0s3s_S3x4rt-1080p.mp4
http://k2s.cc/file/6ec06fec5b841/B3d-0f-R0s3s_S3x4rt-1080p.mp4


Premium here:
uploaded.net
keep2share.cc
rapidu.net.cc


Teens related to Taissia A – Bed of Roses


Young Sex Movies 3968 ryushare uploaded keep2share

Young Sex Movies 3968

Long Julie Vee movies 226110 ryushare uploaded keep2share

Long Julie Vee movies 226110

Brunette bonk ryushare uploaded keep2share

Brunette bonk

Connie Stay by my Woman – YoungLegalPorn ryushare uploaded keep2share

Connie Stay by my Woman – YoungLegalPorn

Young teens tube hot girls free porn video 4952 ryushare uploaded keep2share

Young teens tube hot girls free porn video 4952

sexHD videos mkv ryushare uploaded keep2share

sexHD videos mkv

TrickyMasseur.com Avina ryushare uploaded keep2share

TrickyMasseur.com Avina

First time Sexual Films 18 sex xxx 3226 ryushare uploaded keep2share

First time Sexual Films 18 sex xxx 3226

HQ Sex Movies Download 3507 ryushare uploaded keep2share

HQ Sex Movies Download 3507

Girls sex art hd teens videos 224203 ryushare uploaded keep2share

Girls sex art hd teens videos 224203

xxxxxxxxxxxxx baf hf 226462 ryushare uploaded keep2share

xxxxxxxxxxxxx baf hf 226462

Nude Teens fucking hard 2531 ryushare uploaded keep2share

Nude Teens fucking hard 2531

Hot brunette – blowjob and fucked ryushare uploaded keep2share

Hot brunette – blowjob and fucked

High Definition Movies on HD Teen Porn XXX Tube 1249 ryushare uploaded keep2share

High Definition Movies on HD Teen Porn XXX Tube 1249

Girls do porn in HD 5347 ryushare uploaded keep2share

Girls do porn in HD 5347

Teen Sex Movies 225608 ryushare uploaded keep2share

Teen Sex Movies 225608

Chelsy Sun & Thomas Lee – Play With Me ryushare uploaded keep2share

Chelsy Sun & Thomas Lee – Play With Me

Evening at home with brunette ryushare uploaded keep2share

Evening at home with brunette

1080p porn free dounloaded videos ryushare uploaded keep2share

1080p porn free dounloaded videos

High Definition Movies on HD Teen Porn XXX Tube 1687 ryushare uploaded keep2share

High Definition Movies on HD Teen Porn XXX Tube 1687

8 Teen XXX – Teen Sex 1309 ryushare uploaded keep2share

8 Teen XXX – Teen Sex 1309

Small girls and boys porn 2683 ryushare uploaded keep2share

Small girls and boys porn 2683

Gina Gerson and Victoria Daniels ryushare uploaded keep2share

Gina Gerson and Victoria Daniels

Wow Girls Porn Clips download 225097 ryushare uploaded keep2share

Wow Girls Porn Clips download 225097

Sex in the morning ryushare uploaded keep2share

Sex in the morning

Young 720p hd porn 3776 ryushare uploaded keep2share

Young 720p hd porn 3776

Sweet Teen Porn – Young Porn Videos 4630 ryushare uploaded keep2share

Sweet Teen Porn – Young Porn Videos 4630

Lіоnа & Сhаrlіzе Веllа – Forest Fun ryushare uploaded keep2share

Lіоnа & Сhаrlіzе Веllа – Forest Fun

xxx bf net 226291 ryushare uploaded keep2share

xxx bf net 226291

HD Porn Teen Sex Videos 2783 ryushare uploaded keep2share

HD Porn Teen Sex Videos 2783

Sasha Foxxx (Edge Play with Sasha Foxxx) ryushare uploaded keep2share

Sasha Foxxx (Edge Play with Sasha Foxxx)

Hot sex girls movies download 2609 ryushare uploaded keep2share

Hot sex girls movies download 2609

Tube Young Sex 224718 ryushare uploaded keep2share

Tube Young Sex 224718

High Definition Movies on HD 4166 ryushare uploaded keep2share

High Definition Movies on HD 4166

High Definition Movies on HD 225408 ryushare uploaded keep2share

High Definition Movies on HD 225408

Report broken links / Post a comment

You must be logged in to post a comment.



General\r\nComplete name : D:[SexArt.com] Taissia A – Bed of Roses hd 1080p.mp4\r\nFormat : MPEG-4\r\nFormat profile : Base Media\r\nCodec ID : isom\r\nFile size : 1.19 GiB\r\nDuration : 20mn 58s\r\nOverall bit rate mode : Variable\r\nOverall bit rate : 8 126 Kbps\r\nEncoded date : UTC 2014-04-18 20:16:58\r\nTagged date : UTC 2014-04-18 20:16:58\r\nWriting application : Lavf53.32.100\r\n\r\nVideo\r\nID : 1\r\nFormat : AVC\r\nFormat/Info : Advanced Video Codec\r\nFormat profile : [email protected]\r\nFormat settings, CABAC : Yes\r\nFormat settings, ReFrames : 5 frames\r\nCodec ID : avc1\r\nCodec ID/Info : Advanced Video Coding\r\nDuration : 20mn 58s\r\nBit rate : 8 000 Kbps\r\nWidth : 1 920 pixels\r\nHeight : 1 080 pixels\r\nDisplay aspect ratio : 16:9\r\nFrame rate mode : Constant\r\nFrame rate : 23.976 fps\r\nColor space : YUV\r\nChroma subsampling : 4:2:0\r\nBit depth : 8 bits\r\nScan type : Progressive\r\nBits/(Pixel*Frame) : 0.161\r\nStream size : 1.17 GiB (98%)\r\nWriting library : x264 core 129 r2245 bc13772\r\nEncoding settings : cabac=1 / ref=5 / deblock=1:0:0 / analyse=0x3:0x113 / me=umh / subme=8 / psy=0 / mixed_ref=1 / me_range=16 / chroma_me=1 / trellis=1 / 8x8dct=1 / cqm=0 / deadzone=21,11 / fast_pskip=1 / chroma_qp_offset=0 / threads=36 / lookahead_threads=6 / sliced_threads=0 / nr=0 / decimate=1 / interlaced=0 / bluray_compat=0 / constrained_intra=0 / bframes=3 / b_pyramid=2 / b_adapt=2 / b_bias=0 / direct=3 / weightb=1 / open_gop=0 / weightp=2 / keyint=250 / keyint_min=25 / scenecut=40 / intra_refresh=0 / rc=2pass / mbtree=0 / bitrate=8000 / ratetol=1.0 / qcomp=0.60 / qpmin=10 / qpmax=51 / qpstep=4 / cplxblur=20.0 / qblur=0.5 / ip_ratio=1.40 / pb_ratio=1.30 / aq=1:1.00\r\nLanguage : English\r\nEncoded date : UTC 2014-04-18 20:16:58\r\nTagged date : UTC 2014-04-18 20:16:58\r\n\r\nAudio\r\nID : 2\r\nFormat : AAC\r\nFormat/Info : Advanced Audio Codec\r\nFormat profile : LC\r\nCodec ID : 40\r\nDuration : 20mn 58s\r\nBit rate mode : Variable\r\nBit rate : 120 Kbps\r\nMaximum bit rate : 128 Kbps\r\nChannel(s) : 2 channels\r\nChannel positions : Front: L R\r\nSampling rate : 44.1 KHz\r\nCompression mode : Lossy\r\nStream size : 18.0 MiB (1%)\r\nLanguage : English\r\nEncoded date : UTC 2014-04-18 20:16:58\r\nTagged date : UTC 2014-04-18 20:16:58\r\n\r\n