Stevie Shae – Fuck It Like You Own It

Sandy Sweet & Jessica ValentinoRiley Reid – Forget Me Not

Posted in HD Porn, Pornstar, Sex Movies, Teen | 6253 Views |


Rate this girl !!!




cover\r\n\r\n1920x1080p / MP4 / 1.03 GB\r\n

[Nubiles-Porn.com] Stevie Shae – Fuck It Like You Own It

\r\n \r\n\r\nSCREENSHOTS:\r\n\r\nscreens



DOWNLOAD

Keep2share.cc - Uploaded.net - Openload.co - Rapidu.net


http://k2s.cc/file/5b4c71f9d4e3e/nvb1l3sp0rn_fvck_1t_l1k3_y0v_0wn_1t_1920.mp4
http://ul.to/565c1vbn/nvb1l3sp0rn_fvck_1t_l1k3_y0v_0wn_1t_1920.mp4



Premium here:
uploaded.net
keep2share.cc
rapidu.net.cc


Teens related to Stevie Shae – Fuck It Like You Own It


HD Teen Sex Tube 5118 ryushare uploaded keep2share

HD Teen Sex Tube 5118

The best Teen sex 1220 ryushare uploaded keep2share

The best Teen sex 1220

poran sacool 226118 ryushare uploaded keep2share

poran sacool 226118

hot teen virgin broked pussysex pic ryushare uploaded keep2share

hot teen virgin broked pussysex pic

Tube Young Sex 1390 ryushare uploaded keep2share

Tube Young Sex 1390

www 18years sex videos hd ryushare uploaded keep2share

www 18years sex videos hd

Brandi Melanie Melody – Real Amateur Girls ryushare uploaded keep2share

Brandi Melanie Melody – Real Amateur Girls

Teen 18 Porn XXX Clips Naked 224373 ryushare uploaded keep2share

Teen 18 Porn XXX Clips Naked 224373

Porn party teen girls 223820 ryushare uploaded keep2share

Porn party teen girls 223820

Young XXX Tube Videos 2469 ryushare uploaded keep2share

Young XXX Tube Videos 2469

Watch Teen Sex Videos HD 224429 ryushare uploaded keep2share

Watch Teen Sex Videos HD 224429

College Teen Sex 224503 ryushare uploaded keep2share

College Teen Sex 224503

Teen Sex Porn Videos Free Nude Teens 225569 ryushare uploaded keep2share

Teen Sex Porn Videos Free Nude Teens 225569

www hdbrazzers vedios download ryushare uploaded keep2share

www hdbrazzers vedios download

Hot Teen Sex 4324 ryushare uploaded keep2share

Hot Teen Sex 4324

Movies Young legal porn 224918 ryushare uploaded keep2share

Movies Young legal porn 224918

http is gd real xgrls hot video 226544 ryushare uploaded keep2share

http is gd real xgrls hot video 226544

Babes Giselle Leon 1080p ryushare uploaded keep2share

Babes Giselle Leon 1080p

Free Porn Videos Xxx Movies Pussy Porn 5701 ryushare uploaded keep2share

Free Porn Videos Xxx Movies Pussy Porn 5701

Hot Teen Sex HD videos 3863 ryushare uploaded keep2share

Hot Teen Sex HD videos 3863

pornstar young pornstar 226548 ryushare uploaded keep2share

pornstar young pornstar 226548

Silvie Deluxe – Just A Minute ryushare uploaded keep2share

Silvie Deluxe – Just A Minute

Teen Sex Movies 3927 ryushare uploaded keep2share

Teen Sex Movies 3927

Hot Teen Sex 2379 ryushare uploaded keep2share

Hot Teen Sex 2379

free download sexy xxx mp4 movies com ryushare uploaded keep2share

free download sexy xxx mp4 movies com

HD Porn Teen Sex Videos 223795 ryushare uploaded keep2share

HD Porn Teen Sex Videos 223795

Watch Teen Sex Videos HD 2305 ryushare uploaded keep2share

Watch Teen Sex Videos HD 2305

sex xxx bf england ryushare uploaded keep2share

sex xxx bf england

Jassie Gold – Take Your Tisme / all sex ryushare uploaded keep2share

Jassie Gold – Take Your Tisme / all sex

Caught Up In The Moment – Carmen Fox ryushare uploaded keep2share

Caught Up In The Moment – Carmen Fox

Hot sex girls movies download 2809 ryushare uploaded keep2share

Hot sex girls movies download 2809

Free Young Porn Videos XXX Teen Porn 225792 ryushare uploaded keep2share

Free Young Porn Videos XXX Teen Porn 225792

free high resolution porn movies 226717 ryushare uploaded keep2share

free high resolution porn movies 226717

Young Virgin Pussy Teen Fuck Tube 225554 ryushare uploaded keep2share

Young Virgin Pussy Teen Fuck Tube 225554

Hot Teen Sex HD videos 225940 ryushare uploaded keep2share

Hot Teen Sex HD videos 225940

Report broken links / Post a comment

You must be logged in to post a comment.



General\r\nComplete name : D:hd teens porn download free online[Nubiles-Porn.com] Stevie Shae – Fuck It Like You Own It_1920.mp4\r\nFormat : MPEG-4\r\nFormat profile : Base Media\r\nCodec ID : isom\r\nFile size : 1.03 GiB\r\nDuration : 16mn 10s\r\nOverall bit rate mode : Variable\r\nOverall bit rate : 9 159 Kbps\r\nWriting application : Lavf55.36.102\r\n\r\nVideo\r\nID : 1\r\nFormat : AVC\r\nFormat/Info : Advanced Video Codec\r\nFormat profile : [email protected]\r\nFormat settings, CABAC : Yes\r\nFormat settings, ReFrames : 4 frames\r\nCodec ID : avc1\r\nCodec ID/Info : Advanced Video Coding\r\nDuration : 16mn 10s\r\nBit rate : 9 048 Kbps\r\nWidth : 1 920 pixels\r\nHeight : 1 080 pixels\r\nDisplay aspect ratio : 16:9\r\nFrame rate mode : Constant\r\nFrame rate : 23.976 fps\r\nColor space : YUV\r\nChroma subsampling : 4:2:0\r\nBit depth : 8 bits\r\nScan type : Progressive\r\nBits/(Pixel*Frame) : 0.182\r\nStream size : 1.02 GiB (99%)\r\nWriting library : x264 core 142\r\nEncoding settings : cabac=1 / ref=2 / deblock=1:-1:-1 / analyse=0x1:0x111 / me=umh / subme=8 / psy=1 / psy_rd=1.00:0.15 / mixed_ref=1 / me_range=16 / chroma_me=1 / trellis=1 / 8x8dct=0 / cqm=0 / deadzone=21,11 / fast_pskip=1 / chroma_qp_offset=-3 / threads=6 / lookahead_threads=1 / sliced_threads=0 / nr=0 / decimate=1 / interlaced=0 / bluray_compat=0 / constrained_intra=0 / bframes=3 / b_pyramid=2 / b_adapt=2 / b_bias=0 / direct=3 / weightb=1 / open_gop=0 / weightp=0 / keyint=240 / keyint_min=24 / scenecut=40 / intra_refresh=0 / rc_lookahead=50 / rc=crf / mbtree=1 / crf=18.0 / qcomp=0.60 / qpmin=0 / qpmax=69 / qpstep=4 / ip_ratio=1.40 / aq=1:1.00\r\nLanguage : English\r\n\r\nAudio\r\nID : 2\r\nFormat : AAC\r\nFormat/Info : Advanced Audio Codec\r\nFormat profile : LC\r\nCodec ID : 40\r\nDuration : 16mn 10s\r\nBit rate mode : Variable\r\nBit rate : 106 Kbps\r\nMaximum bit rate : 196 Kbps\r\nChannel(s) : 2 channels\r\nChannel positions : Front: L R\r\nSampling rate : 44.1 KHz\r\nCompression mode : Lossy\r\nStream size : 12.2 MiB (1%)\r\nLanguage : English\r\n\r\n