Spanish Party Hot Teens HD

Much Need Vacation X-ArtBeautiful brunette teen fucking from behind Hd

Posted in HD Porn, Sex Movies, Teen, Threesome | 19714 Views |


Rate this girl !!!




Spanish Party Hot Teens Ibiza HD\r\n\r\nSpanish Party Hot Teens Ibiza HD 1\r\nSpanish Party Hot Teens Ibiza HD 2\r\nSpanish Party Hot Teens Ibiza HD 3\r\n\r\n Link(1.72 Gb||55:12||1280*720||MP4)



DOWNLOAD

Keep2share.cc - Uploaded.net - Openload.co - Rapidu.net


http://keep2share.cc/file/52dad3f4580db
http://ul.to/whg19cwp
http://ryushare.com/1fec5b0e7962/SDNPGNSCrl.rar



Premium here:
uploaded.net
keep2share.cc
rapidu.net.cc

Teens related to Spanish Party Hot Teens HD


Teens sex mania 223786 ryushare uploaded keep2share

Teens sex mania 223786

girlboy xxxwalpaper 226160 ryushare uploaded keep2share

girlboy xxxwalpaper 226160

HD Teen Sex Tube 224188 ryushare uploaded keep2share

HD Teen Sex Tube 224188

Hot Teen Sex HD videos 2167 ryushare uploaded keep2share

Hot Teen Sex HD videos 2167

Wow porn hd downloads 224645 ryushare uploaded keep2share

Wow porn hd downloads 224645

very hot pron 226721 ryushare uploaded keep2share

very hot pron 226721

Teen 18 Porn XXX Clips Naked 3895 ryushare uploaded keep2share

Teen 18 Porn XXX Clips Naked 3895

www xxx hd videos English com down 226494 ryushare uploaded keep2share

www xxx hd videos English com down 226494

Wow porn hd downloads 224319 ryushare uploaded keep2share

Wow porn hd downloads 224319

Wow Girls Porn Clips download 224386 ryushare uploaded keep2share

Wow Girls Porn Clips download 224386

High Definition Movies on HD Teen Porn XXX Tube 3621 ryushare uploaded keep2share

High Definition Movies on HD Teen Porn XXX Tube 3621

Wow Porn Movies download) 225050 ryushare uploaded keep2share

Wow Porn Movies download) 225050

Young Sex Movies 4407 ryushare uploaded keep2share

Young Sex Movies 4407

Hd young videos 2754 ryushare uploaded keep2share

Hd young videos 2754

Free High Quality Sex Movies 225750 ryushare uploaded keep2share

Free High Quality Sex Movies 225750

Young legal porn clips 4613 ryushare uploaded keep2share

Young legal porn clips 4613

Teenies Videos – Teen Porn, Teen Sex, XXX Free Videos 2114 ryushare uploaded keep2share

Teenies Videos – Teen Porn, Teen Sex, XXX Free Videos 2114

Nude Teens fucking hard 223878 ryushare uploaded keep2share

Nude Teens fucking hard 223878

Lucy Li – Perky Teen Lucy Li Gets Lathered download in hd 226168 ryushare uploaded keep2share

Lucy Li – Perky Teen Lucy Li Gets Lathered download in hd 226168

Teen porn movies 224601 ryushare uploaded keep2share

Teen porn movies 224601

free download sexy xxx mp4 movies com ryushare uploaded keep2share

free download sexy xxx mp4 movies com

Good Teen Tube Sexy Young Naked Girls Movies 225053 ryushare uploaded keep2share

Good Teen Tube Sexy Young Naked Girls Movies 225053

Alexis Brill – Waltz With Me – Autumn ryushare uploaded keep2share

Alexis Brill – Waltz With Me – Autumn

Girls sex art hd teens videos 225167 ryushare uploaded keep2share

Girls sex art hd teens videos 225167

hdsex movea com 226516 ryushare uploaded keep2share

hdsex movea com 226516

Teen Porn XXX Tube 225930 ryushare uploaded keep2share

Teen Porn XXX Tube 225930

89 xxx he video in 226441 ryushare uploaded keep2share

89 xxx he video in 226441

teen sex hd movi dsunloal 226601 ryushare uploaded keep2share

teen sex hd movi dsunloal 226601

X-art Scarlet Jayden Blindfold me part2 ryushare uploaded keep2share

X-art Scarlet Jayden Blindfold me part2

Teens in Porno young porn videos and free teen sex 5650 ryushare uploaded keep2share

Teens in Porno young porn videos and free teen sex 5650

[Castingcouch-X.com] Alex Tanner ryushare uploaded keep2share

[Castingcouch-X.com] Alex Tanner

Sweet Teen Porn – Young Porn Videos 224494 ryushare uploaded keep2share

Sweet Teen Porn – Young Porn Videos 224494

Free Teen Porn Videos at Teen Sex Tube XXX 3711 ryushare uploaded keep2share

Free Teen Porn Videos at Teen Sex Tube XXX 3711

xxx video 6teen Hd ryushare uploaded keep2share

xxx video 6teen Hd

kyra hot and kiara lord klixen three teasing tongues 226098 ryushare uploaded keep2share

kyra hot and kiara lord klixen three teasing tongues 226098

Report broken links / Post a comment

You must be logged in to post a comment.



General\r\nComplete name : D:Spanish Party Hot Teens Ibiza HDSDNPGNSCrl.mp4\r\nFormat : MPEG-4\r\nFormat profile : Base Media\r\nCodec ID : isom\r\nFile size : 1.72 GiB\r\nDuration : 55mn 12s\r\nOverall bit rate : 4 465 Kbps\r\nWriting application : Lavf55.12.102\r\n\r\nVideo\r\nID : 1\r\nFormat : AVC\r\nFormat/Info : Advanced Video Codec\r\nFormat profile : [email protected]\r\nFormat settings, CABAC : Yes\r\nFormat settings, ReFrames : 5 frames\r\nCodec ID : avc1\r\nCodec ID/Info : Advanced Video Coding\r\nDuration : 55mn 12s\r\nBit rate : 4 329 Kbps\r\nWidth : 1 280 pixels\r\nHeight : 720 pixels\r\nDisplay aspect ratio : 16:9\r\nFrame rate mode : Constant\r\nFrame rate : 29.970 fps\r\nColor space : YUV\r\nChroma subsampling : 4:2:0\r\nBit depth : 8 bits\r\nScan type : Progressive\r\nBits/(Pixel*Frame) : 0.157\r\nStream size : 1.67 GiB (97%)\r\nWriting library : x264 core 133 r2334 a3ac64b\r\nEncoding settings : cabac=1 / ref=5 / deblock=1:0:0 / analyse=0x3:0x113 / me=umh / subme=8 / psy=1 / psy_rd=1.00:0.00 / mixed_ref=1 / me_range=16 / chroma_me=1 / trellis=1 / 8x8dct=1 / cqm=0 / deadzone=21,11 / fast_pskip=1 / chroma_qp_offset=2 / threads=6 / lookahead_threads=1 / sliced_threads=0 / nr=0 / decimate=1 / interlaced=0 / bluray_compat=0 / constrained_intra=0 / bframes=3 / b_pyramid=2 / b_adapt=2 / b_bias=0 / direct=3 / weightb=1 / open_gop=0 / weightp=2 / keyint=150 / keyint_min=15 / scenecut=40 / intra_refresh=0 / rc_lookahead=50 / rc=crf / mbtree=1 / crf=20.0 / qcomp=0.60 / qpmin=0 / qpmax=69 / qpstep=4 / vbv_maxrate=6000 / vbv_bufsize=6000 / crf_max=0.0 / nal_hrd=none / ip_ratio=1.40 / aq=1:1.00\r\n\r\nAudio\r\nID : 2\r\nFormat : AAC\r\nFormat/Info : Advanced Audio Codec\r\nFormat profile : LC\r\nCodec ID : 40\r\nDuration : 55mn 12s\r\nDuration_LastFrame : -10ms\r\nBit rate mode : Constant\r\nBit rate : 128 Kbps\r\nChannel(s) : 2 channels\r\nChannel positions : Front: L R\r\nSampling rate : 44.1 KHz\r\nCompression mode : Lossy\r\nStream size : 50.5 MiB (3%)\r\n\r\n