SONJA N – fuck my natural hairy pussy

Sabrina L – Sabrina Flirting With Her Personal TrainerChelsy Sun & Thomas Lee – Play With Me

Posted in Amateur, HD Porn, Sex Movies, Teen | 13073 Views |


Rate this girl !!!




[SexyOnes.com] SONJA N – FUCK MY NATURAL HAIRY PUSSY\r\n

[SexyOnes.com] SONJA N – FUCK MY NATURAL HAIRY PUSSY

\r\n1920x1080p / MP4 / 912.24 MB\r\n\r\nSCREENSHOTS:\r\n\r\n[SexyOnes.com] SONJA N – FUCK MY NATURAL HAIRY PUSSY 2



DOWNLOAD

Keep2share.cc - Uploaded.net - Openload.co - Rapidu.net


http://k2s.cc/file/9559348d42ec9/h41ry_0n3s_2013-12-22_1080.mp4
http://ul.to/mo0fwqoo/h41ry_0n3s_2013-12-22_1080.mp4


Premium here:
uploaded.net
keep2share.cc
rapidu.net.cc


Teens related to SONJA N – fuck my natural hairy pussy


download pc porno movie ryushare uploaded keep2share

download pc porno movie

HD Teen Sex Tube 1160 ryushare uploaded keep2share

HD Teen Sex Tube 1160

Nude Teens fucking hard 223878 ryushare uploaded keep2share

Nude Teens fucking hard 223878

Young XXX Tube Videos 3540 ryushare uploaded keep2share

Young XXX Tube Videos 3540

Sex with my blonde ex girlfriend ryushare uploaded keep2share

Sex with my blonde ex girlfriend

download hd sex vids for pc 226447 ryushare uploaded keep2share

download hd sex vids for pc 226447

Young XXX Tube Videos 3564 ryushare uploaded keep2share

Young XXX Tube Videos 3564

Young Virgin Pussy Teen Fuck Tube 3398 ryushare uploaded keep2share

Young Virgin Pussy Teen Fuck Tube 3398

Www gri xxx com 226361 ryushare uploaded keep2share

Www gri xxx com 226361

Upload Hdxxx short videos ryushare uploaded keep2share

Upload Hdxxx short videos

Kissme Girl – Aidra Fox & Sasha ryushare uploaded keep2share

Kissme Girl – Aidra Fox & Sasha

Hd young videos 2754 ryushare uploaded keep2share

Hd young videos 2754

Alyona, Klara & Paloma – Strap-on Adventure ryushare uploaded keep2share

Alyona, Klara & Paloma – Strap-on Adventure

Uploaded net porn 2517 ryushare uploaded keep2share

Uploaded net porn 2517

Hd quality – Teen sex video 224703 ryushare uploaded keep2share

Hd quality – Teen sex video 224703

www xxxx video donlood hd 226672 ryushare uploaded keep2share

www xxxx video donlood hd 226672

21Naturals.com Beata Undine – Dreaming ryushare uploaded keep2share

21Naturals.com Beata Undine – Dreaming

Good Teen Tube Sexy Young Naked Girls Movies 225053 ryushare uploaded keep2share

Good Teen Tube Sexy Young Naked Girls Movies 225053

Teen porn xxx 5487 ryushare uploaded keep2share

Teen porn xxx 5487

High Definition Movies on HD 225408 ryushare uploaded keep2share

High Definition Movies on HD 225408

Linda S – Making Up For Lost Time ryushare uploaded keep2share

Linda S – Making Up For Lost Time

HD Sex World Videos High Definition Free Porn 225104 ryushare uploaded keep2share

HD Sex World Videos High Definition Free Porn 225104

Hardcore Sex Hub 3273 ryushare uploaded keep2share

Hardcore Sex Hub 3273

HD Porn Video 224481 ryushare uploaded keep2share

HD Porn Video 224481

Good Teen Tube Sexy Young Naked Girls Movies 223843 ryushare uploaded keep2share

Good Teen Tube Sexy Young Naked Girls Movies 223843

Free Porn Videos Xxx Movies Pussy Porn 225817 ryushare uploaded keep2share

Free Porn Videos Xxx Movies Pussy Porn 225817

xxx movies hd for mobile com ryushare uploaded keep2share

xxx movies hd for mobile com

High Definition Movies on HD Teen Porn XXX Tube 1192 ryushare uploaded keep2share

High Definition Movies on HD Teen Porn XXX Tube 1192

b f sex hot movie download ryushare uploaded keep2share

b f sex hot movie download

HD Porn Video 1701 ryushare uploaded keep2share

HD Porn Video 1701

Teen Sex Porn Videos Free Nude Teens 5214 ryushare uploaded keep2share

Teen Sex Porn Videos Free Nude Teens 5214

High Definition Movies on HD 1647 ryushare uploaded keep2share

High Definition Movies on HD 1647

Teen Sex Movies Young Porn Tube Vids 225839 ryushare uploaded keep2share

Teen Sex Movies Young Porn Tube Vids 225839

High Definition Movies on HD Teen Porn XXX Tube 1687 ryushare uploaded keep2share

High Definition Movies on HD Teen Porn XXX Tube 1687

HD Porn Video 5532 ryushare uploaded keep2share

HD Porn Video 5532

Report broken links / Post a comment

You must be logged in to post a comment.



General\r\nComplete name : D:[SexyOnes.com] SONJA N – FUCK MY NATURAL HAIRY PUSSY.mp4\r\nFormat : MPEG-4\r\nFormat profile : Base Media / Version 2\r\nCodec ID : mp42\r\nFile size : 912 MiB\r\nDuration : 15mn 40s\r\nOverall bit rate mode : Variable\r\nOverall bit rate : 8 133 Kbps\r\nEncoded date : UTC 2013-07-21 04:50:47\r\nTagged date : UTC 2013-07-21 04:50:47\r\nWriting library : Apple QuickTime\r\n\r\nVideo\r\nID : 1\r\nFormat : AVC\r\nFormat/Info : Advanced Video Codec\r\nFormat profile : [email protected]\r\nFormat settings, CABAC : No\r\nFormat settings, ReFrames : 3 frames\r\nFormat settings, GOP : M=1, N=2\r\nCodec ID : avc1\r\nCodec ID/Info : Advanced Video Coding\r\nDuration : 15mn 40s\r\nSource duration : 15mn 40s\r\nBit rate mode : Variable\r\nBit rate : 7 674 Kbps\r\nMaximum bit rate : 8 001 Kbps\r\nWidth : 1 920 pixels\r\nHeight : 1 080 pixels\r\nDisplay aspect ratio : 16:9\r\nFrame rate mode : Constant\r\nFrame rate : 25.000 fps\r\nStandard : Component\r\nColor space : YUV\r\nChroma subsampling : 4:2:0\r\nBit depth : 8 bits\r\nScan type : Progressive\r\nBits/(Pixel*Frame) : 0.148\r\nStream size : 861 MiB (94%)\r\nSource stream size : 897 MiB (98%)\r\nLanguage : English\r\nEncoded date : UTC 2013-07-21 04:50:47\r\nTagged date : UTC 2013-07-21 04:50:47\r\nmdhd_Duration : 940880\r\n\r\nAudio\r\nID : 2\r\nFormat : AAC\r\nFormat/Info : Advanced Audio Codec\r\nFormat profile : LC\r\nCodec ID : 40\r\nDuration : 15mn 40s\r\nBit rate mode : Variable\r\nBit rate : 128 Kbps\r\nMaximum bit rate : 133 Kbps\r\nChannel(s) : 2 channels\r\nChannel positions : Front: L R\r\nSampling rate : 44.1 KHz\r\nCompression mode : Lossy\r\nStream size : 14.4 MiB (2%)\r\nLanguage : English\r\nEncoded date : UTC 2013-07-21 04:50:47\r\nTagged date : UTC 2013-07-21 04:50:47\r\n\r\nOther #1\r\nID : 3\r\nType : Object description\r\nFormat : System Core\r\nCodec ID : 2\r\nDuration : 15mn 40s\r\nLanguage : English\r\nEncoded date : UTC 2013-07-21 04:50:47\r\nTagged date : UTC 2013-07-21 04:50:47\r\nmdhd_Duration : 1000\r\n\r\nOther #2\r\nID : 4\r\nType : Scene description\r\nFormat : System Core\r\nCodec ID : 2\r\nDuration : 15mn 40s\r\nLanguage : English\r\nEncoded date : UTC 2013-07-21 04:50:47\r\nTagged date : UTC 2013-07-21 04:50:47\r\nmdhd_Duration : 1000\r\n\r\n