Skinny brunette

Hot brunette blowjobFucking with young athlete

Posted in Amateur, HD Porn, Sex Movies, Teen | 14684 Views |


Rate this girl !!!




\r\n\r\nhttp://img101.imagetwist.com/i/05142/bh4ch46x3xzq.jpeg\r\n\r\nSkinny brunette\r\n\r\n Link(938 Mb||49:22||950*534||MP4)



DOWNLOAD

Keep2share.cc - Uploaded.net - Openload.co - Rapidu.net


http://keep2share.cc/file/52e61ef239fca
http://ryushare.com/hoiwfafn27dx/CSNGHXbl.rar
http://ul.to/xyvijvmr


Premium here:
uploaded.net
keep2share.cc
rapidu.net.cc

Teens related to Skinny brunette


[Spizoo.com]  (Romi Rain Hires A Gigolo / 01.12.2016) ryushare uploaded keep2share

[Spizoo.com] (Romi Rain Hires A Gigolo / 01.12.2016)

Creampie-Angels.com Grace ryushare uploaded keep2share

Creampie-Angels.com Grace

Young Virgin Pussy Teen Fuck Tube 1916 ryushare uploaded keep2share

Young Virgin Pussy Teen Fuck Tube 1916

Hot sex girls movies download 4277 ryushare uploaded keep2share

Hot sex girls movies download 4277

Molly – Deep and passionate anal ryushare uploaded keep2share

Molly – Deep and passionate anal

Girls do porn in HD 225969 ryushare uploaded keep2share

Girls do porn in HD 225969

8 Teen XXX – Teen Sex 224449 ryushare uploaded keep2share

8 Teen XXX – Teen Sex 224449

xvideos hd porn videos DOWNLOAD ryushare uploaded keep2share

xvideos hd porn videos DOWNLOAD

Porn teen hd downloads 224517 ryushare uploaded keep2share

Porn teen hd downloads 224517

George on Morgan ryushare uploaded keep2share

George on Morgan

High Definition Movies on HD Teen Porn XXX Tube 2597 ryushare uploaded keep2share

High Definition Movies on HD Teen Porn XXX Tube 2597

download porn pc hd vedoid 226182 ryushare uploaded keep2share

download porn pc hd vedoid 226182

Teenage Fuck Clips 3405 ryushare uploaded keep2share

Teenage Fuck Clips 3405

ClubSeventeen.com SiteRip – Part 3 ryushare uploaded keep2share

ClubSeventeen.com SiteRip – Part 3

Bella Baby 2013 – Facial Double Blowjob Cumshot ryushare uploaded keep2share

Bella Baby 2013 – Facial Double Blowjob Cumshot

HD Sex World Videos High Definition Free Porn 1554 ryushare uploaded keep2share

HD Sex World Videos High Definition Free Porn 1554

Teen Sex Movies 223947 ryushare uploaded keep2share

Teen Sex Movies 223947

Porn teen hd downloads 5641 ryushare uploaded keep2share

Porn teen hd downloads 5641

Klara, Paloma – Let’s Come Together ryushare uploaded keep2share

Klara, Paloma – Let’s Come Together

Teen Sex Porn Videos Free Nude Teens 5135 ryushare uploaded keep2share

Teen Sex Porn Videos Free Nude Teens 5135

teen porn at pinkworld ryushare uploaded keep2share

teen porn at pinkworld

Milagres – A Cool Tool For Me ryushare uploaded keep2share

Milagres – A Cool Tool For Me

xxxhqvideo dld ryushare uploaded keep2share

xxxhqvideo dld

Porno movies young teens lesbian 5412 ryushare uploaded keep2share

Porno movies young teens lesbian 5412

Hardcore Sex Hub 5391 ryushare uploaded keep2share

Hardcore Sex Hub 5391

Xxxbabez teen video ryushare uploaded keep2share

Xxxbabez teen video

Young XXX Tube Videos 2398 ryushare uploaded keep2share

Young XXX Tube Videos 2398

Kleine Muschi will ficken – Desertigl ryushare uploaded keep2share

Kleine Muschi will ficken – Desertigl

sax yas xxx ryushare uploaded keep2share

sax yas xxx

HD Teen Sex Tube 225487 ryushare uploaded keep2share

HD Teen Sex Tube 225487

Young Virgin Pussy Teen Fuck Tube 4366 ryushare uploaded keep2share

Young Virgin Pussy Teen Fuck Tube 4366

First time Sexual Films 18 sex xxx 4421 ryushare uploaded keep2share

First time Sexual Films 18 sex xxx 4421

xxx purn HD dawnlod ryushare uploaded keep2share

xxx purn HD dawnlod

Hd video download porn china 226385 ryushare uploaded keep2share

Hd video download porn china 226385

8 Teen XXX – Teen Sex 1751 ryushare uploaded keep2share

8 Teen XXX – Teen Sex 1751

Report broken links / Post a comment

You must be logged in to post a comment.



General\r\nComplete name : D:Skinny brunetteCSNGHXblCSNGHXbl.mp4\r\nFormat : MPEG-4\r\nFormat profile : Base Media\r\nCodec ID : isom\r\nFile size : 938 MiB\r\nDuration : 49mn 22s\r\nOverall bit rate : 2 657 Kbps\r\nEncoded date : UTC 2014-01-13 20:59:46\r\nTagged date : UTC 2014-01-13 20:59:46\r\nWriting application : Lavf53.24.0\r\n\r\nVideo\r\nID : 1\r\nFormat : AVC\r\nFormat/Info : Advanced Video Codec\r\nFormat profile : [email protected]\r\nFormat settings, CABAC : Yes\r\nFormat settings, ReFrames : 5 frames\r\nCodec ID : avc1\r\nCodec ID/Info : Advanced Video Coding\r\nDuration : 49mn 22s\r\nBit rate : 2 500 Kbps\r\nWidth : 950 pixels\r\nHeight : 534 pixels\r\nDisplay aspect ratio : 16:9\r\nOriginal display aspect ratio : 16:9\r\nFrame rate mode : Constant\r\nFrame rate : 29.970 fps\r\nColor space : YUV\r\nChroma subsampling : 4:2:0\r\nBit depth : 8 bits\r\nScan type : Progressive\r\nBits/(Pixel*Frame) : 0.164\r\nStream size : 890 MiB (95%)\r\nWriting library : x264 core 119 r2106 07efeb4\r\nEncoding settings : cabac=1 / ref=5 / deblock=1:0:0 / analyse=0x3:0x113 / me=umh / subme=8 / psy=0 / mixed_ref=1 / me_range=16 / chroma_me=1 / trellis=1 / 8x8dct=1 / cqm=0 / deadzone=21,11 / fast_pskip=1 / chroma_qp_offset=0 / threads=24 / sliced_threads=0 / nr=0 / decimate=1 / interlaced=0 / bluray_compat=0 / constrained_intra=0 / bframes=3 / b_pyramid=2 / b_adapt=2 / b_bias=0 / direct=3 / weightb=1 / open_gop=0 / weightp=2 / keyint=250 / keyint_min=25 / scenecut=40 / intra_refresh=0 / rc=abr / mbtree=0 / bitrate=2500 / ratetol=1.0 / qcomp=0.60 / qpmin=10 / qpmax=51 / qpstep=4 / ip_ratio=1.40 / pb_ratio=1.30 / aq=1:1.00\r\nLanguage : English\r\nEncoded date : UTC 2014-01-13 20:59:46\r\nTagged date : UTC 2014-01-13 20:59:46\r\n\r\nAudio\r\nID : 2\r\nFormat : AAC\r\nFormat/Info : Advanced Audio Codec\r\nFormat profile : LC\r\nCodec ID : 40\r\nDuration : 49mn 22s\r\nBit rate mode : Constant\r\nBit rate : 128 Kbps\r\nChannel(s) : 2 channels\r\nChannel positions : Front: L R\r\nSampling rate : 48.0 KHz\r\nCompression mode : Lossy\r\nStream size : 45.1 MiB (5%)\r\nLanguage : English\r\nEncoded date : UTC 2014-01-13 20:59:46\r\nTagged date : UTC 2014-01-13 20:59:46\r\n\r\n