Sex Teens porn movies 3718

Teen Porn XXX Tube 3723HD porn uploaded 3712

Posted in HD Porn, Pornstar, Sex Movies, Teen | 23585 Views |


Rate this girl !!!




\r\n\r\n\r\n



DOWNLOAD

Keep2share.cc - Uploaded.net - Openload.co - Rapidu.net


http://ul.to/j2esp7vi/SM.PSGry.mpg
http://fileom.com/s1e96qolvjtu/SM.PSGry.mpg.html
http://ryushare.com/gamgxpbajdoa/SM.PSGry.mpg
http://k2s.cc/file/27b4816b090f7/SM.PSGry.mpg



Premium here:
uploaded.net
keep2share.cc
rapidu.net.cc


Teens related to Sex Teens porn movies 3718


hdsex movea com 226516 ryushare uploaded keep2share

hdsex movea com 226516

Hd young videos 225308 ryushare uploaded keep2share

Hd young videos 225308

18 xxx potn srx 226432 ryushare uploaded keep2share

18 xxx potn srx 226432

Free High Quality Sex Movies 225699 ryushare uploaded keep2share

Free High Quality Sex Movies 225699

big boobs teen 226172 ryushare uploaded keep2share

big boobs teen 226172

Porno movies young teens lesbian 223864 ryushare uploaded keep2share

Porno movies young teens lesbian 223864

HD sex movies downloads 3688 ryushare uploaded keep2share

HD sex movies downloads 3688

Teen Sex Porn Videos Free Nude Teens 5082 ryushare uploaded keep2share

Teen Sex Porn Videos Free Nude Teens 5082

Teen porn movies 2132 ryushare uploaded keep2share

Teen porn movies 2132

TrickyMasseur.com Isabeli ryushare uploaded keep2share

TrickyMasseur.com Isabeli

Free High Quality Sex Movies 1788 ryushare uploaded keep2share

Free High Quality Sex Movies 1788

Chelsea – First & Forever ryushare uploaded keep2share

Chelsea – First & Forever

nude hot 226040 ryushare uploaded keep2share

nude hot 226040

Teen Sex Videos Big Tits Amateur 4768 ryushare uploaded keep2share

Teen Sex Videos Big Tits Amateur 4768

Young 720p hd porn 4581 ryushare uploaded keep2share

Young 720p hd porn 4581

xixx x video hd com ryushare uploaded keep2share

xixx x video hd com

Valentina Nappi – La Dolce Vita ryushare uploaded keep2share

Valentina Nappi – La Dolce Vita

www yesxx xxx 226218 ryushare uploaded keep2share

www yesxx xxx 226218

Sexart  – Carla Cox – The last night (Orgy) ryushare uploaded keep2share

Sexart – Carla Cox – The last night (Orgy)

The best Teen sex 225598 ryushare uploaded keep2share

The best Teen sex 225598

free download hd romance porn movie 226678 ryushare uploaded keep2share

free download hd romance porn movie 226678

Porn teen hd downloads 224721 ryushare uploaded keep2share

Porn teen hd downloads 224721

Young Virgin Pussy Teen Fuck Tube 1916 ryushare uploaded keep2share

Young Virgin Pussy Teen Fuck Tube 1916

HD Porn Teen Sex Videos 224669 ryushare uploaded keep2share

HD Porn Teen Sex Videos 224669

Young teens tube hot girls free porn video 5570 ryushare uploaded keep2share

Young teens tube hot girls free porn video 5570

hard fuck hd image download 226631 ryushare uploaded keep2share

hard fuck hd image download 226631

HD Porn Teen Sex Videos 224362 ryushare uploaded keep2share

HD Porn Teen Sex Videos 224362

Porn party teen girls 225342 ryushare uploaded keep2share

Porn party teen girls 225342

sax yas xxx ryushare uploaded keep2share

sax yas xxx

Naughty Temptress – Capri Anderson ryushare uploaded keep2share

Naughty Temptress – Capri Anderson

Maddy O’Reilly – Heat wave ryushare uploaded keep2share

Maddy O’Reilly – Heat wave

Hot teen ryushare uploaded keep2share

Hot teen

Hot Teen Sex 225853 ryushare uploaded keep2share

Hot Teen Sex 225853

HD Sex World Videos High Definition Free Porn 2359 ryushare uploaded keep2share

HD Sex World Videos High Definition Free Porn 2359

Watch Teen Sex Videos HD 225144 ryushare uploaded keep2share

Watch Teen Sex Videos HD 225144

Report broken links / Post a comment

You must be logged in to post a comment.



General\r\nComplete name : D:hd pornstars teens ryushare.com uploaded.net keep2share.cc fileom.com streamcloud.eu allmyvideos.net ul.to download porn movies clips SM.PSGry.mpg\r\nFormat : MPEG-PS\r\nFile size : 654 MiB\r\nDuration : 19mn 58s\r\nOverall bit rate mode : Variable\r\nOverall bit rate : 4 576 Kbps\r\n\r\nVideo\r\nID : 224 (0xE0)\r\nFormat : MPEG Video\r\nFormat version : Version 1\r\nFormat settings, BVOP : No\r\nFormat settings, Matrix : Default\r\nFormat settings, GOP : N=12\r\nDuration : 19mn 58s\r\nBit rate mode : Variable\r\nBit rate : 4 357 Kbps\r\nWidth : 1 920 pixels\r\nHeight : 1 080 pixels\r\nDisplay aspect ratio : 16:9\r\nFrame rate : 23.976 fps\r\nColor space : YUV\r\nChroma subsampling : 4:2:0\r\nBit depth : 8 bits\r\nScan type : Progressive\r\nCompression mode : Lossy\r\nBits/(Pixel*Frame) : 0.088\r\nTime code of first frame : 00:00:00:00\r\nTime code source : Group of pictures header\r\nStream size : 623 MiB (95%)\r\n\r\nAudio\r\nID : 192 (0xC0)\r\nFormat : MPEG Audio\r\nFormat version : Version 1\r\nFormat profile : Layer 2\r\nDuration : 19mn 58s\r\nBit rate mode : Constant\r\nBit rate : 128 Kbps\r\nChannel(s) : 2 channels\r\nSampling rate : 48.0 KHz\r\nCompression mode : Lossy\r\nDelay relative to video : -10ms\r\nStream size : 18.3 MiB (3%)\r\n\r\nhd pornstars teens ryushare.com uploaded.net keep2share.cc fileom.com streamcloud.eu allmyvideos.net ul.to download porn movies clips