Sex Teens porn movies 3015

Young legal porn clips 3020Teen Sex Porn Videos Free Nude Teens 3009

Posted in Amateur, HD Porn, Sex Movies, Teen | 7205 Views |


Rate this girl !!!




\r\n2.jpg\r\n\r\nLink(1.02 Gb||35:44||1280*720||WMV)



DOWNLOAD

Keep2share.cc - Uploaded.net - Openload.co - Rapidu.net


http://k2s.cc/file/d753975eb91cb/HYTSNDYvg.wmv
http://ryushare.com/qkvk544u2dqp/HYTSNDYvg.wmv
http://ul.to/0ur2f7nl/HYTSNDYvg.wmv


Premium here:
uploaded.net
keep2share.cc
rapidu.net.cc


Teens related to Sex Teens porn movies 3015


Young Sex Movies 225490 ryushare uploaded keep2share

Young Sex Movies 225490

xxx www888 ryushare uploaded keep2share

xxx www888

Young teens tube hot girls free porn video 1296 ryushare uploaded keep2share

Young teens tube hot girls free porn video 1296

Yours Forever – Lisa ryushare uploaded keep2share

Yours Forever – Lisa

[FTVGirls.com] 2016-10-07 – Eva & Violet Starr – College Girls In Love [Lesbo, Toys, Fisting, 1080p] ryushare uploaded keep2share

[FTVGirls.com] 2016-10-07 – Eva & Violet Starr – College Girls In Love [Lesbo, Toys, Fisting, 1080p]

Welcome To The Wild / Beata ryushare uploaded keep2share

Welcome To The Wild / Beata

Teena Dolly ryushare uploaded keep2share

Teena Dolly

Hot Teen Sex HD videos 1748 ryushare uploaded keep2share

Hot Teen Sex HD videos 1748

Hot download sex girls movies 224263 ryushare uploaded keep2share

Hot download sex girls movies 224263

sax yas xxx ryushare uploaded keep2share

sax yas xxx

www boys to boy xxx download videos com 226381 ryushare uploaded keep2share

www boys to boy xxx download videos com 226381

Young Virgin Pussy Teen Fuck Tube 1473 ryushare uploaded keep2share

Young Virgin Pussy Teen Fuck Tube 1473

Foxy Di – I’m all yours ryushare uploaded keep2share

Foxy Di – I’m all yours

Hot Teen Sex 4324 ryushare uploaded keep2share

Hot Teen Sex 4324

Teen porn movies 225220 ryushare uploaded keep2share

Teen porn movies 225220

Adriana – Slut in a Tu Tu ryushare uploaded keep2share

Adriana – Slut in a Tu Tu

Fresh Teen Videos 4217 ryushare uploaded keep2share

Fresh Teen Videos 4217

nubilefilms com/youporn december 2014 226042 ryushare uploaded keep2share

nubilefilms com/youporn december 2014 226042

Hot Teen Sex HD videos 1149 ryushare uploaded keep2share

Hot Teen Sex HD videos 1149

HD Porn Videos 2300 ryushare uploaded keep2share

HD Porn Videos 2300

Free High Quality Sex Movies 5357 ryushare uploaded keep2share

Free High Quality Sex Movies 5357

Scarlet, Christine – Fantasy Come True ryushare uploaded keep2share

Scarlet, Christine – Fantasy Come True

Fresh Teen Videos 2970 ryushare uploaded keep2share

Fresh Teen Videos 2970

Hd quality – Teen sex video 225399 ryushare uploaded keep2share

Hd quality – Teen sex video 225399

Teen Sex Videos Tube Movies 3941 ryushare uploaded keep2share

Teen Sex Videos Tube Movies 3941

Young Sex Movies 224351 ryushare uploaded keep2share

Young Sex Movies 224351

The best Teen sex 5166 ryushare uploaded keep2share

The best Teen sex 5166

HD Sex World Videos High Definition Free Porn 5367 ryushare uploaded keep2share

HD Sex World Videos High Definition Free Porn 5367

Teeny Tini Striptease ryushare uploaded keep2share

Teeny Tini Striptease

Young teens tube hot girls free porn video 2523 ryushare uploaded keep2share

Young teens tube hot girls free porn video 2523

College Teen Sex 5112 ryushare uploaded keep2share

College Teen Sex 5112

Free High Quality Sex Movies 3731 ryushare uploaded keep2share

Free High Quality Sex Movies 3731

Teen porn movies 3425 ryushare uploaded keep2share

Teen porn movies 3425

WowGirls.com Vanda – The pleasure Is All Mine ryushare uploaded keep2share

WowGirls.com Vanda – The pleasure Is All Mine

Hd quality – Teen sex video 1722 ryushare uploaded keep2share

Hd quality – Teen sex video 1722

Report broken links / Post a comment

You must be logged in to post a comment.



General\r\nComplete name : D:HD Porn Teens Sex download movies tube online tubeHYTSNDYvg.wmv\r\nFormat : Windows Media\r\nFile size : 1.02 GiB\r\nDuration : 35mn 44s\r\nOverall bit rate mode : Constant\r\nOverall bit rate : 4 066 Kbps\r\nMaximum Overall bit rate : 4 085 Kbps\r\nEncoded date : UTC 2012-04-18 05:01:26.803\r\n\r\nVideo\r\nID : 2\r\nFormat : VC-1\r\nFormat profile : [email protected]\r\nCodec ID : WMV3\r\nCodec ID/Info : Windows Media Video 9\r\nCodec ID/Hint : WMV3\r\nDescription of the codec : Windows Media Video 9 - Professional\r\nDuration : 35mn 44s\r\nBit rate mode : Constant\r\nBit rate : 4 000 Kbps\r\nWidth : 1 280 pixels\r\nHeight : 720 pixels\r\nDisplay aspect ratio : 16:9\r\nFrame rate : 50.000 fps\r\nColor space : YUV\r\nChroma subsampling : 4:2:0\r\nBit depth : 8 bits\r\nScan type : Progressive\r\nCompression mode : Lossy\r\nBits/(Pixel*Frame) : 0.087\r\nStream size : 1 023 MiB (98%)\r\nNumberOfFrames : 107194\r\n\r\nAudio\r\nID : 1\r\nFormat : WMA\r\nFormat version : Version 2\r\nCodec ID : 161\r\nCodec ID/Info : Windows Media Audio\r\nDescription of the codec : Windows Media Audio 9.2 - 48 kbps, 44 kHz, stereo 1-pass CBR\r\nDuration : 35mn 44s\r\nBit rate mode : Constant\r\nBit rate : 48.0 Kbps\r\nChannel(s) : 2 channels\r\nSampling rate : 44.1 KHz\r\nBit depth : 16 bits\r\nStream size : 12.3 MiB (1%)\r\nNumberOfFrames : 5775\r\n\r\n