Sex and lots of milk

Fucking outdoorsTeen acrobat sex

Posted in Amateur, HD Porn, Sex Movies, Teen | 8680 Views |


Rate this girl !!!




\r\n\r\nhttp://img55.imagetwist.com/i/05147/gt47uejcgqb3.jpeg\r\n\r\n Link(773 Mb||33:50||1280*720||MP4) \r\n\r\nSex and lots of milk – Cumshot, xxx, young, uploaded.net, ryushare.com, keep2share.cc,\r\n



DOWNLOAD

Keep2share.cc - Uploaded.net - Openload.co - Rapidu.net


http://keep2share.cc/file/52e5d4532658d
http://ryushare.com/a75127lsmqcj/BCNDSTYlr.rar
http://ul.to/x0472yzs


Premium here:
uploaded.net
keep2share.cc
rapidu.net.cc

Teens related to Sex and lots of milk


GirlsDoPorn E230 18 Years Old ryushare uploaded keep2share

GirlsDoPorn E230 18 Years Old

Girls do porn in HD 5406 ryushare uploaded keep2share

Girls do porn in HD 5406

Veronika – Awesome sex with hot teeny ryushare uploaded keep2share

Veronika – Awesome sex with hot teeny

Ariana Marie – Post Workout Sex ryushare uploaded keep2share

Ariana Marie – Post Workout Sex

Nude Teens fucking hard 224900 ryushare uploaded keep2share

Nude Teens fucking hard 224900

[RylskyArt.com] Welesa Wil – Grenarz ryushare uploaded keep2share

[RylskyArt.com] Welesa Wil – Grenarz

21Natural hd teen free ryushare uploaded keep2share

21Natural hd teen free

HD Porn Teen Sex Videos 1479 ryushare uploaded keep2share

HD Porn Teen Sex Videos 1479

fucking pix hd download ryushare uploaded keep2share

fucking pix hd download

Teen xxx sex hd 224286 ryushare uploaded keep2share

Teen xxx sex hd 224286

Download young porn sex 5145 ryushare uploaded keep2share

Download young porn sex 5145

Klixen – K Two Teasing Tongues 12 – B ryushare uploaded keep2share

Klixen – K Two Teasing Tongues 12 – B

Teen Sex Movies 223765 ryushare uploaded keep2share

Teen Sex Movies 223765

Daisy, Karin ryushare uploaded keep2share

Daisy, Karin

FirstAnalQuest Carmen Fox ryushare uploaded keep2share

FirstAnalQuest Carmen Fox

Girls do porn in HD 224797 ryushare uploaded keep2share

Girls do porn in HD 224797

Porn teen hd downloads 5641 ryushare uploaded keep2share

Porn teen hd downloads 5641

Teens in Porno young porn videos and free teen sex 4470 ryushare uploaded keep2share

Teens in Porno young porn videos and free teen sex 4470

HD Porn Teen Sex Videos 2979 ryushare uploaded keep2share

HD Porn Teen Sex Videos 2979

Dakota James & Hannah Hartman – Blindfold My Baby ryushare uploaded keep2share

Dakota James & Hannah Hartman – Blindfold My Baby

Adult Hardcore XXX Sex Videos 1343 ryushare uploaded keep2share

Adult Hardcore XXX Sex Videos 1343

Christina Snow – NubilesFilms – Join In ryushare uploaded keep2share

Christina Snow – NubilesFilms – Join In

Welcome To The Wild / Beata ryushare uploaded keep2share

Welcome To The Wild / Beata

[LegalPorno.com] Rebecca Volpetti (Rebecca Volpetti goes hardcore: 3on1 anal & DP SZ1298) [2016 г., Gonzo, Gangbang, Anal, DP, Swallow, 720p] Страницы:  1 ryushare uploaded keep2share

[LegalPorno.com] Rebecca Volpetti (Rebecca Volpetti goes hardcore: 3on1 anal & DP SZ1298) [2016 г., Gonzo, Gangbang, Anal, DP, Swallow, 720p] Страницы: 1

direct link hd porn 225998 ryushare uploaded keep2share

direct link hd porn 225998

Adult Hardcore XXX Sex Videos 224399 ryushare uploaded keep2share

Adult Hardcore XXX Sex Videos 224399

Porn teen hd downloads 224873 ryushare uploaded keep2share

Porn teen hd downloads 224873

Uploaded net porn XXX 225290 ryushare uploaded keep2share

Uploaded net porn XXX 225290

Wow Girls Porn Clips download 225928 ryushare uploaded keep2share

Wow Girls Porn Clips download 225928

Young 720p hd porn 4007 ryushare uploaded keep2share

Young 720p hd porn 4007

8 Teen XXX – Teen Sex 2476 ryushare uploaded keep2share

8 Teen XXX – Teen Sex 2476

Hot Teen Sex HD videos 1578 ryushare uploaded keep2share

Hot Teen Sex HD videos 1578

High Definition Movies on HD Teen Porn XXX Tube 1708 ryushare uploaded keep2share

High Definition Movies on HD Teen Porn XXX Tube 1708

Nude Teens fucking hard 4199 ryushare uploaded keep2share

Nude Teens fucking hard 4199

Model porno sex 4859 ryushare uploaded keep2share

Model porno sex 4859

Report broken links / Post a comment

You must be logged in to post a comment.



General\r\nComplete name : D:Sex and lots of milkBCNDSTYlrBCNDSTYlr.mp4\r\nFormat : MPEG-4\r\nFormat profile : Base Media\r\nCodec ID : isom\r\nFile size : 773 MiB\r\nDuration : 33mn 48s\r\nOverall bit rate mode : Variable\r\nOverall bit rate : 3 198 Kbps\r\nWriting application : Lavf52.54.0\r\n\r\nVideo\r\nID : 1\r\nFormat : AVC\r\nFormat/Info : Advanced Video Codec\r\nFormat profile : [email protected]\r\nFormat settings, CABAC : Yes\r\nFormat settings, ReFrames : 4 frames\r\nCodec ID : avc1\r\nCodec ID/Info : Advanced Video Coding\r\nDuration : 33mn 48s\r\nDuration_FirstFrame : 33ms\r\nBit rate : 3 000 Kbps\r\nWidth : 1 280 pixels\r\nHeight : 720 pixels\r\nDisplay aspect ratio : 16:9\r\nFrame rate mode : Constant\r\nFrame rate : 29.970 fps\r\nColor space : YUV\r\nChroma subsampling : 4:2:0\r\nBit depth : 8 bits\r\nScan type : Progressive\r\nBits/(Pixel*Frame) : 0.109\r\nStream size : 725 MiB (94%)\r\nWriting library : x264 core 98\r\nEncoding settings : cabac=1 / ref=4 / deblock=1:0:0 / analyse=0x3:0x113 / me=umh / subme=8 / psy=1 / psy_rd=1.00:0.00 / mixed_ref=1 / me_range=16 / chroma_me=1 / trellis=1 / 8x8dct=1 / cqm=0 / deadzone=21,11 / fast_pskip=1 / chroma_qp_offset=-2 / threads=4 / sliced_threads=0 / nr=0 / decimate=1 / interlaced=0 / constrained_intra=0 / bframes=3 / b_pyramid=0 / b_adapt=2 / b_bias=0 / direct=3 / weightb=1 / weightp=0 / keyint=250 / keyint_min=25 / scenecut=40 / intra_refresh=0 / rc=2pass / mbtree=0 / bitrate=3000 / ratetol=1.0 / qcomp=0.60 / qpmin=10 / qpmax=51 / qpstep=4 / cplxblur=20.0 / qblur=0.5 / ip_ratio=1.41 / pb_ratio=1.25 / aq=1:1.00\r\nLanguage : English\r\nTagged date : UTC 2014-01-13 21:21:28\r\n\r\nAudio\r\nID : 2\r\nFormat : AAC\r\nFormat/Info : Advanced Audio Codec\r\nFormat profile : LC\r\nCodec ID : 40\r\nDuration : 33mn 48s\r\nBit rate mode : Variable\r\nBit rate : 63.6 Kbps\r\nChannel(s) : 2 channels\r\nChannel positions : Front: L R\r\nSampling rate : 48.0 KHz\r\nCompression mode : Lossy\r\nStream size : 15.4 MiB (2%)\r\nLanguage : English\r\nTagged date : UTC 2014-01-13 21:21:28\r\n\r\n