RealExGirlfriends.com Megan Rain – Brunette Teen

Creampie-Angels.com LicieRealExGerlfriends.com Sammie Daniels – Heavenly Pussy

Posted in HD Porn, Pornstar, Sex Movies, Teen | 13722 Views |


Rate this girl !!!




cover\r\n\r\n1920x1080p / MP4 / 1.22 GB\r\n

[RealExGirlfriends.com] Megan Rain – Brunette Teen

\r\nSCREENSHOTS:\r\n\r\nscreens



DOWNLOAD

Keep2share.cc - Uploaded.net - Openload.co - Rapidu.net



http://ul.to/b81bo2p8/r3x.m3g4n.r41n.brvn3tt3.t33n.18.10.14.1080.mp4

http://played.to/wzveb5dcaklx


Premium here:
uploaded.net
keep2share.cc
rapidu.net.cc


Teens related to RealExGirlfriends.com Megan Rain – Brunette Teen


Free Young Porn Videos XXX Teen Porn 4185 ryushare uploaded keep2share

Free Young Porn Videos XXX Teen Porn 4185

Girls sex art hd teens videos 225284 ryushare uploaded keep2share

Girls sex art hd teens videos 225284

HD Teen Sex Tube 225339 ryushare uploaded keep2share

HD Teen Sex Tube 225339

Kaliiirose fucking 226142 ryushare uploaded keep2share

Kaliiirose fucking 226142

Young xxx 224554 ryushare uploaded keep2share

Young xxx 224554

First time Sexual Films 18 sex xxx 224473 ryushare uploaded keep2share

First time Sexual Films 18 sex xxx 224473

Model porno sex 2514 ryushare uploaded keep2share

Model porno sex 2514

hd small mbporn video sites 226424 ryushare uploaded keep2share

hd small mbporn video sites 226424

Girls do porn in HD 224304 ryushare uploaded keep2share

Girls do porn in HD 224304

Good Teen Tube Sexy Young Naked Girls Movies 224527 ryushare uploaded keep2share

Good Teen Tube Sexy Young Naked Girls Movies 224527

Sweet Teen Porn – Young Porn Videos 3641 ryushare uploaded keep2share

Sweet Teen Porn – Young Porn Videos 3641

16 xxx ryushare uploaded keep2share

16 xxx

Young 720p hd porn 4917 ryushare uploaded keep2share

Young 720p hd porn 4917

Girls do porn downloads 4056 ryushare uploaded keep2share

Girls do porn downloads 4056

Porn HD Sex HD Teen Sex 224962 ryushare uploaded keep2share

Porn HD Sex HD Teen Sex 224962

Young Sex Movies 2411 ryushare uploaded keep2share

Young Sex Movies 2411

Valentina Nappi – La Dolce Vita ryushare uploaded keep2share

Valentina Nappi – La Dolce Vita

www youngxxx videos com 226140 ryushare uploaded keep2share

www youngxxx videos com 226140

Hardcore Sex Hub 225062 ryushare uploaded keep2share

Hardcore Sex Hub 225062

www sexhdmovus com ryushare uploaded keep2share

www sexhdmovus com

Free Teen Porn Videos at Teen Sex Tube XXX 224161 ryushare uploaded keep2share

Free Teen Porn Videos at Teen Sex Tube XXX 224161

www hdworld xxx video com ryushare uploaded keep2share

www hdworld xxx video com

Susan Ayn ryushare uploaded keep2share

Susan Ayn

CastingCouch X Jayden Full HD ryushare uploaded keep2share

CastingCouch X Jayden Full HD

HD Porn Videos 1476 ryushare uploaded keep2share

HD Porn Videos 1476

Amateur Teen Sex 224827 ryushare uploaded keep2share

Amateur Teen Sex 224827

1280*720hd sex vídeo com ryushare uploaded keep2share

1280*720hd sex vídeo com

Young 720p hd porn 3975 ryushare uploaded keep2share

Young 720p hd porn 3975

Emily – A date from sugar daddy sex chat ryushare uploaded keep2share

Emily – A date from sugar daddy sex chat

Teenage Fuck Clips 5122 ryushare uploaded keep2share

Teenage Fuck Clips 5122

Free Young Porn Videos XXX Teen Porn 3871 ryushare uploaded keep2share

Free Young Porn Videos XXX Teen Porn 3871

Adult Hardcore XXX Sex Videos 224399 ryushare uploaded keep2share

Adult Hardcore XXX Sex Videos 224399

Fucked by two cocks in all holes ryushare uploaded keep2share

Fucked by two cocks in all holes

Denise Sky ryushare uploaded keep2share

Denise Sky

Good Teen Tube Sexy Young Naked Girls Movies 225053 ryushare uploaded keep2share

Good Teen Tube Sexy Young Naked Girls Movies 225053

Report broken links / Post a comment

You must be logged in to post a comment.



[RealExGirlfriends.com] Megan Rain – Brunette Teen \r\n\r\nGeneral\r\nComplete name : J:HD Teens Movies Young Downloads Online Clips Scenesr [RealExGirlfriends.com] Megan Rain – Brunette Teen .18.10.14.1080.mp4\r\nFormat : MPEG-4\r\nFormat profile : Base Media\r\nCodec ID : isom\r\nFile size : 1.22 GiB\r\nDuration : 23mn 2s\r\nOverall bit rate mode : Variable\r\nOverall bit rate : 7 573 Kbps\r\nWriting application : Lavf55.44.100\r\n\r\nVideo\r\nID : 1\r\nFormat : AVC\r\nFormat/Info : Advanced Video Codec\r\nFormat profile : [email protected]\r\nFormat settings, CABAC : No\r\nFormat settings, ReFrames : 2 frames\r\nCodec ID : avc1\r\nCodec ID/Info : Advanced Video Coding\r\nDuration : 23mn 2s\r\nBit rate : 7 468 Kbps\r\nWidth : 1 920 pixels\r\nHeight : 1 080 pixels\r\nDisplay aspect ratio : 16:9\r\nFrame rate mode : Constant\r\nFrame rate : 23.976 fps\r\nColor space : YUV\r\nChroma subsampling : 4:2:0\r\nBit depth : 8 bits\r\nScan type : Progressive\r\nBits/(Pixel*Frame) : 0.150\r\nStream size : 1.20 GiB (99%)\r\nWriting library : x264 core 142 r2431 a5831aa\r\nEncoding settings : cabac=0 / ref=2 / deblock=1:0:0 / analyse=0x1:0x111 / me=hex / subme=6 / psy=1 / psy_rd=1.00:0.00 / mixed_ref=1 / me_range=16 / chroma_me=1 / trellis=1 / 8x8dct=0 / cqm=0 / deadzone=21,11 / fast_pskip=1 / chroma_qp_offset=-2 / threads=1 / lookahead_threads=1 / sliced_threads=0 / nr=0 / decimate=1 / interlaced=0 / bluray_compat=0 / constrained_intra=0 / bframes=0 / weightp=0 / keyint=250 / keyint_min=23 / scenecut=40 / intra_refresh=0 / rc_lookahead=30 / rc=crf / mbtree=1 / crf=18.0 / qcomp=0.60 / qpmin=0 / qpmax=69 / qpstep=4 / ip_ratio=1.40 / aq=1:1.00\r\nLanguage : English\r\n\r\nAudio\r\nID : 2\r\nFormat : AAC\r\nFormat/Info : Advanced Audio Codec\r\nFormat profile : LC\r\nCodec ID : 40\r\nDuration : 23mn 2s\r\nBit rate mode : Variable\r\nBit rate : 99.7 Kbps\r\nMaximum bit rate : 128 Kbps\r\nChannel count : 2 channels\r\nChannel positions : Front: L R\r\nSampling rate : 48.0 KHz\r\nCompression mode : Lossy\r\nStream size : 16.4 MiB (1%)\r\nLanguage : English\r\n\r\n